<?xml version="1.0" encoding="UTF-8" standalone="no"?>
<!DOCTYPE svg  PUBLIC '-//W3C//DTD SVG 1.1//EN'  'http://www.w3.org/Graphics/SVG/1.1/DTD/svg11.dtd'>
<svg xmlns="http://www.w3.org/2000/svg">
<defs>
<font id="DroidArabicKufi-Regular" horiz-adv-x="0">
<font-face underline-position="-103" font-weight="400" descent="-410" panose-1="2 11 6 6 3 8 4 2 2 4" units-per-em="2048" unicode-range="U+0020-FEFC" bbox="-479 -1123 3111 2605" underline-thickness="102" font-family="DroidArabicKufi" ascent="1638"/>
<missing-glyph d="M217 -248h795v1577h-795v-1577zM102 -362v1806h1024v-1806h-1024z" horiz-adv-x="1229"/>
<glyph arabic-form="isolated" glyph-name="allah" horiz-adv-x="3213" unicode="اﻟﻠﻪ" d="M1493 2161h117v-338h-117v338zM1393 1339q-80 0 -124 51t-44 148v129h106v-111q0 -55 16.5 -83.5t65.5 -28.5q90 0 90 94v180h96v-139q0 -54 19 -74t59 -20q56 0 75.5 26t19.5 86v152h106v-170q0 -96 -45 -147.5t-131 -51.5q-94 0 -143 62q-49 -103 -166 -103zM2826 1556 h183v-1556h-183v1556zM829 160v674h-129q-184 0 -284.5 -94.5t-100.5 -264.5q0 -153 87 -234t247 -81h180zM653 0q-246 0 -383 124.5t-137 348.5q0 242 152 381t409 139h135v129h175v-962h483v1089h182v-1089h516v1089h182v-1249h-1714z"/>
<glyph arabic-form="isolated" glyph-name="riyal" horiz-adv-x="3285" unicode="رﻳﺎل" d="M2292 -410q-48 0 -81.5 29t-33.5 94t33.5 94t81.5 29q52 0 83 -31.5t31 -91.5q0 -59 -30.5 -91t-83.5 -32zM1937 -410q-53 0 -83.5 32t-30.5 91q0 58 30 90.5t84 32.5q55 0 85 -33.5t30 -89.5t-30 -89.5t-85 -33.5zM2746 -492q-96 0 -209 58l54 137q76 -35 151 -35 q91 0 144 74t53 199v1052h172v-1042q0 -207 -94 -325t-271 -118zM1565 1556h182v-1396h532v833h183v-993h-897v1556zM545 -492q-190 0 -301 140t-111 385q0 126 22 255.5t62 227.5h170q-70 -177 -70 -483q0 -175 70 -270t197 -95h100q178 0 261 81t83 245v1562h174v-1548 q0 -248 -123 -374t-387 -126h-147z"/>
<glyph arabic-form="isolated" glyph-name="uni06440622.isol" horiz-adv-x="1380" unicode="ﻟﺂ" d="M92 160h459l-264 1120h190l264 -1120h56q217 0 217 237v1159h182v-1183q0 -170 -103 -271.5t-276 -101.5h-725v160zM45 1434q11 98 57 154.5t131 56.5q37 0 74 -14t71.5 -31t66 -31t57.5 -14q41 0 61.5 21.5t34.5 70.5h92q-11 -97 -57 -153.5t-131 -56.5q-37 0 -73 14 t-70 31t-66 31t-60 14q-42 0 -62 -21.5t-34 -71.5h-92z"/>
<glyph arabic-form="final" glyph-name="uni06440622.fina" horiz-adv-x="1452" unicode="ﻠﺂ" d="M92 160h459l-264 1120h190l264 -1120h273v1396h182v-1396h266q11 0 11 -8v-142q0 -10 -11 -10h-1370v160zM45 1434q11 98 57 154.5t131 56.5q37 0 74 -14t71.5 -31t66 -31t57.5 -14q41 0 61.5 21.5t34.5 70.5h92q-11 -97 -57 -153.5t-131 -56.5q-37 0 -73 14t-70 31 t-66 31t-60 14q-42 0 -62 -21.5t-34 -71.5h-92z"/>
<glyph arabic-form="isolated" glyph-name="uni06440623.isol" horiz-adv-x="1380" unicode="ﻟﺄ" d="M92 160h459l-264 1120h190l264 -1120h56q217 0 217 237v1159h182v-1183q0 -170 -103 -271.5t-276 -101.5h-725v160zM141 1547l97 14q-72 47 -72 130q0 88 57.5 136t151.5 48q80 0 135 -31l-31 -92q-41 25 -102 25q-45 0 -76 -25.5t-31 -79.5q0 -35 18 -59.5t44 -36.5 q20 5 98 15.5t107 10.5v-100q-16 0 -72.5 -5.5t-208.5 -25.5l-115 -18v94z"/>
<glyph arabic-form="final" glyph-name="uni06440623.fina" horiz-adv-x="1452" unicode="ﻠﺄ" d="M92 160h459l-264 1120h190l264 -1120h273v1396h182v-1396h266q11 0 11 -8v-142q0 -10 -11 -10h-1370v160zM141 1547l97 14q-72 47 -72 130q0 88 57.5 136t151.5 48q80 0 135 -31l-31 -92q-41 25 -102 25q-45 0 -76 -25.5t-31 -79.5q0 -35 18 -59.5t44 -36.5q20 5 98 15.5 t107 10.5v-100q-16 0 -72.5 -5.5t-208.5 -25.5l-115 -18v94z"/>
<glyph arabic-form="isolated" glyph-name="uni06440625.isol" horiz-adv-x="1380" unicode="ﻟﺈ" d="M92 160h459l-264 1120h190l264 -1120h56q217 0 217 237v1159h182v-1183q0 -170 -103 -271.5t-276 -101.5h-725v160zM473 -527l97 14q-29 18 -50.5 51t-21.5 78q0 86 55.5 135t153.5 49q80 0 135 -31l-31 -92q-41 25 -102 25q-45 0 -76 -25.5t-31 -79.5q0 -65 62 -96 q20 5 102 16t103 11v-101q-46 0 -194.5 -19t-201.5 -30v95z"/>
<glyph arabic-form="final" glyph-name="uni06440625.fina" horiz-adv-x="1452" unicode="ﻠﺈ" d="M92 160h459l-264 1120h190l264 -1120h273v1396h182v-1396h266q11 0 11 -8v-142q0 -10 -11 -10h-1370v160zM473 -527l97 14q-29 18 -50.5 51t-21.5 78q0 86 55.5 135t153.5 49q80 0 135 -31l-31 -92q-41 25 -102 25q-45 0 -76 -25.5t-31 -79.5q0 -65 62 -96q20 5 102 16 t103 11v-101q-46 0 -194.5 -19t-201.5 -30v95z"/>
<glyph arabic-form="isolated" glyph-name="uni06440627.isol" horiz-adv-x="1380" unicode="ﻟﺎ" d="M92 160h459l-264 1120h190l264 -1120h56q217 0 217 237v1159h182v-1183q0 -170 -103 -271.5t-276 -101.5h-725v160z"/>
<glyph arabic-form="final" glyph-name="uni06440627.fina" horiz-adv-x="1452" unicode="ﻠﺎ" d="M92 160h459l-264 1120h190l264 -1120h273v1396h182v-1396h266q11 0 11 -8v-142q0 -10 -11 -10h-1370v160z"/>
<glyph glyph-name="uni06440671.isol" horiz-adv-x="1380" unicode="ﻟﭑ" d="M92 160h459l-264 1120h190l264 -1120h56q217 0 217 237v1159h182v-1183q0 -170 -103 -271.5t-276 -101.5h-725v160zM485 1527q0 60 -17.5 86.5t-54.5 26.5q-36 0 -68.5 -32t-47.5 -81h188zM90 1527h94q72 209 229 209q85 0 130.5 -55t45.5 -154v-94h-499v94z"/>
<glyph glyph-name="uni06440671.fina" horiz-adv-x="1452" unicode="ﻠﭑ" d="M92 160h459l-264 1120h190l264 -1120h273v1396h182v-1396h266q11 0 11 -8v-142q0 -10 -11 -10h-1370v160zM485 1527q0 60 -17.5 86.5t-54.5 26.5q-36 0 -68.5 -32t-47.5 -81h188zM90 1527h94q72 209 229 209q85 0 130.5 -55t45.5 -154v-94h-499v94z"/>
<glyph arabic-form="isolated" glyph-name="uni0621" horiz-adv-x="1004" unicode="ء" d="M133 131q42 5 66 12l116 21q-57 38 -94 114t-37 166q0 124 52.5 212t149 135t222.5 47q147 0 248 -60l-45 -153q-101 53 -199 53q-119 0 -181 -63t-62 -183q0 -77 35.5 -140t93.5 -91l45 5q310 40 379 40v-166q-100 0 -394 -38t-395 -60v149z"/>
<glyph arabic-form="isolated" glyph-name="uni0622" horiz-adv-x="592" unicode="آ" d="M205 1434h182v-1434h-182v1434zM-18 1556q11 98 57 154.5t131 56.5q37 0 74 -14t71.5 -31t66 -31t57.5 -14q41 0 61.5 21.5t34.5 70.5h92q-11 -97 -57 -153.5t-131 -56.5q-37 0 -73 14t-70 31t-66 31t-60 14q-42 0 -62 -21.5t-34 -71.5h-92z"/>
<glyph arabic-form="isolated" glyph-name="uni0623" horiz-adv-x="592" unicode="أ" d="M205 1434h182v-1434h-182v1434zM90 1628l97 14q-72 47 -72 130q0 88 57.5 136t151.5 48q80 0 135 -31l-31 -92q-41 25 -102 25q-45 0 -76 -25.5t-31 -79.5q0 -35 18 -59.5t44 -36.5q20 5 98 15.5t107 10.5v-100q-16 0 -72.5 -5.5t-208.5 -25.5l-115 -18v94z"/>
<glyph arabic-form="isolated" glyph-name="uni0624" horiz-adv-x="1149" unicode="ؤ" d="M801 160v674h-88q-182 0 -283.5 -96t-101.5 -269q0 -160 69.5 -234.5t210.5 -74.5h193zM502 -492q-209 0 -369 105l82 137q66 -35 136 -58.5t155 -23.5q139 0 218 74.5t79 198.5v59h-201q-218 0 -337.5 120t-119.5 347q0 241 153 383.5t409 142.5h268v-1042 q0 -209 -123.5 -326t-349.5 -117zM352 1267l97 14q-72 47 -72 130q0 88 57.5 136t151.5 48q80 0 135 -31l-31 -92q-41 25 -102 25q-45 0 -76 -25.5t-31 -79.5q0 -35 18 -59.5t44 -36.5q20 5 98 15.5t107 10.5v-100q-16 0 -72.5 -5.5t-208.5 -25.5l-115 -18v94z"/>
<glyph arabic-form="isolated" glyph-name="uni0625" horiz-adv-x="592" unicode="إ" d="M205 1556h182v-1556h-182v1556zM104 -446l97 14q-29 18 -50.5 51t-21.5 78q0 86 55.5 135t153.5 49q80 0 135 -31l-31 -92q-41 25 -102 25q-45 0 -76 -25.5t-31 -79.5q0 -65 62 -96q20 5 102 16t103 11v-101q-46 0 -194.5 -19t-201.5 -30v95z"/>
<glyph arabic-form="isolated" glyph-name="uni0626" horiz-adv-x="1718" unicode="ئ" d="M545 -492q-192 0 -302 133t-110 361q0 107 17.5 193t54.5 176h170q-23 -57 -35.5 -109.5t-17.5 -101.5t-5 -146q0 -166 69 -256t198 -90h401q157 0 248.5 57t91.5 152q0 38 -26 74t-70 71t-150 99q-123 73 -172 115.5t-74.5 88t-25.5 99.5q0 122 90.5 257.5t224.5 223.5 t260 88q49 0 137.5 -28t127.5 -54l-74 -137q-30 15 -85.5 25t-98.5 10q-69 0 -160.5 -56t-155 -138t-63.5 -156q0 -69 153 -162q151 -92 214.5 -152t98.5 -129.5t35 -142.5q0 -171 -137 -268t-389 -97h-440zM307 709l97 14q-72 47 -72 130q0 88 57.5 136t151.5 48 q80 0 135 -31l-31 -92q-41 25 -102 25q-45 0 -76 -25.5t-31 -79.5q0 -35 18 -59.5t44 -36.5q20 5 98 15.5t107 10.5v-100q-16 0 -72.5 -5.5t-208.5 -25.5l-115 -18v94z"/>
<glyph arabic-form="isolated" glyph-name="uni0627" horiz-adv-x="592" unicode="ا" d="M205 1556h182v-1556h-182v1556z"/>
<glyph arabic-form="isolated" glyph-name="uni0628" horiz-adv-x="1593" unicode="ب" d="M516 0q-177 0 -280 106.5t-103 290.5q0 68 14.5 157t36.5 151h164q-31 -148 -31 -293q0 -112 53 -182t140 -70h735v833h174v-993h-903zM854 -410q-53 0 -84 32t-31 91t30.5 91t84.5 32q55 0 85 -33.5t30 -89.5t-30 -89.5t-85 -33.5z"/>
<glyph arabic-form="isolated" glyph-name="uni0629" horiz-adv-x="1223" unicode="ة" d="M612 137q293 0 293 316q0 186 -78 294.5t-217 108.5q-125 0 -209 -112t-84 -291q0 -316 295 -316zM608 -20q-226 0 -350.5 123.5t-124.5 351.5q0 150 62.5 280t173 204.5t245.5 74.5q127 0 237.5 -76.5t174.5 -208.5t64 -274q0 -232 -121.5 -353.5t-360.5 -121.5z M762 1188q-53 0 -84 32t-31 91t30.5 91t84.5 32q55 0 85 -33.5t30 -89.5t-30 -89.5t-85 -33.5zM408 1188q-48 0 -81.5 29t-33.5 94t33.5 94t81.5 29q52 0 83 -31.5t31 -91.5q0 -59 -30.5 -91t-83.5 -32z"/>
<glyph arabic-form="isolated" glyph-name="uni062A" horiz-adv-x="1593" unicode="ت" d="M516 0q-177 0 -280 106.5t-103 290.5q0 68 14.5 157t36.5 151h164q-31 -148 -31 -293q0 -112 53 -182t140 -70h735v833h174v-993h-903zM952 994q-53 0 -84 32t-31 91t30.5 91t84.5 32q55 0 85 -33.5t30 -89.5t-30 -89.5t-85 -33.5zM598 994q-48 0 -81.5 29t-33.5 94 t33.5 94t81.5 29q52 0 83 -31.5t31 -91.5q0 -59 -30.5 -91t-83.5 -32z"/>
<glyph arabic-form="isolated" glyph-name="uni062B" horiz-adv-x="1593" unicode="ث" d="M516 0q-177 0 -280 106.5t-103 290.5q0 68 14.5 157t36.5 151h164q-31 -148 -31 -293q0 -112 53 -182t140 -70h735v833h174v-993h-903zM969 996q-53 0 -84 32t-31 91t30.5 91t84.5 32q55 0 85 -33.5t30 -89.5t-30 -89.5t-85 -33.5zM615 996q-48 0 -81.5 29t-33.5 94 t33.5 94t81.5 29q55 0 85 -33.5t30 -89.5t-30 -89.5t-85 -33.5zM791 1272q-46 0 -76 26.5t-30 86.5q0 59 30 86t76 27q43 0 74.5 -27.5t31.5 -85.5q0 -60 -31.5 -86.5t-74.5 -26.5z"/>
<glyph arabic-form="isolated" glyph-name="uni062C" horiz-adv-x="1319" unicode="ج" d="M1077 25q-55 44 -94 85t-68 95q-343 -93 -489.5 -201t-146.5 -250q0 -131 76 -192.5t237 -61.5q103 0 301 33l22 -141q-145 -31 -230 -40t-167 -9q-198 0 -312 103.5t-114 291.5q0 129 75 237t236 197.5t457 177.5q-16 54 -39 185q-27 162 -100.5 240.5t-198.5 78.5 q-73 0 -176 -29.5t-182 -72.5l-72 141q79 51 198 86t234 35q392 0 459 -432q25 -160 73 -260.5t130 -155.5zM614 -349q-53 0 -84 32t-31 91t30.5 91t84.5 32q55 0 85 -33.5t30 -89.5t-30 -89.5t-85 -33.5z"/>
<glyph arabic-form="isolated" glyph-name="uni062D" horiz-adv-x="1319" unicode="ح" d="M1077 25q-55 44 -94 85t-68 95q-343 -93 -489.5 -201t-146.5 -250q0 -131 76 -192.5t237 -61.5q103 0 301 33l22 -141q-145 -31 -230 -40t-167 -9q-198 0 -312 103.5t-114 291.5q0 129 75 237t236 197.5t457 177.5q-16 54 -39 185q-27 162 -100.5 240.5t-198.5 78.5 q-73 0 -176 -29.5t-182 -72.5l-72 141q79 51 198 86t234 35q392 0 459 -432q25 -160 73 -260.5t130 -155.5z"/>
<glyph arabic-form="isolated" glyph-name="uni062E" horiz-adv-x="1319" unicode="خ" d="M1077 25q-55 44 -94 85t-68 95q-343 -93 -489.5 -201t-146.5 -250q0 -131 76 -192.5t237 -61.5q103 0 301 33l22 -141q-145 -31 -230 -40t-167 -9q-198 0 -312 103.5t-114 291.5q0 129 75 237t236 197.5t457 177.5q-16 54 -39 185q-27 162 -100.5 240.5t-198.5 78.5 q-73 0 -176 -29.5t-182 -72.5l-72 141q79 51 198 86t234 35q392 0 459 -432q25 -160 73 -260.5t130 -155.5zM506 1188q-53 0 -84 32t-31 91t30.5 91t84.5 32q55 0 85 -33.5t30 -89.5t-30 -89.5t-85 -33.5z"/>
<glyph arabic-form="isolated" glyph-name="uni062F" horiz-adv-x="1042" unicode="د" d="M92 160h682q-40 275 -153 468.5t-322 334.5l66 155q236 -123 384.5 -365t200.5 -597v-156h-858v160z"/>
<glyph arabic-form="isolated" glyph-name="uni0630" horiz-adv-x="1042" unicode="ذ" d="M92 160h682q-40 275 -153 468.5t-322 334.5l66 155q236 -123 384.5 -365t200.5 -597v-156h-858v160zM371 1307q-53 0 -84 32t-31 91t30.5 91t84.5 32q55 0 85 -33.5t30 -89.5t-30 -89.5t-85 -33.5z"/>
<glyph arabic-form="isolated" glyph-name="uni0631" horiz-adv-x="666" unicode="ر" d="M127 -492q-98 0 -209 58l53 137q50 -22 82 -28.5t70 -6.5q92 0 144 75t52 198v1052h173v-1042q0 -207 -94 -325t-271 -118z"/>
<glyph arabic-form="isolated" glyph-name="uni0632" horiz-adv-x="666" unicode="ز" d="M127 -492q-98 0 -209 58l53 137q50 -22 82 -28.5t70 -6.5q92 0 144 75t52 198v1052h173v-1042q0 -207 -94 -325t-271 -118zM395 1188q-53 0 -84 32t-31 91t30.5 91t84.5 32q55 0 85 -33.5t30 -89.5t-30 -89.5t-85 -33.5z"/>
<glyph arabic-form="isolated" glyph-name="uni0633" horiz-adv-x="2544" unicode="س" d="M2071 0q-92 0 -169.5 30.5t-160.5 110.5q-47 -63 -122 -102t-177 -39h-240q0 -242 -123 -367t-387 -125h-147q-190 0 -301 140t-111 385q0 126 22 255.5t62 227.5h170q-70 -177 -70 -483q0 -175 70 -270t197 -95h100q178 0 261 81t83 245v840h174v-674h221q99 0 154 65.5 t55 171.5v437h174v-492l-2 -23q51 -89 113 -124t154 -35h124v833h175v-993h-299z"/>
<glyph arabic-form="isolated" glyph-name="uni0634" horiz-adv-x="2544" unicode="ش" d="M2071 0q-92 0 -169.5 30.5t-160.5 110.5q-47 -63 -122 -102t-177 -39h-240q0 -242 -123 -367t-387 -125h-147q-190 0 -301 140t-111 385q0 126 22 255.5t62 227.5h170q-70 -177 -70 -483q0 -175 70 -270t197 -95h100q178 0 261 81t83 245v840h174v-674h221q99 0 154 65.5 t55 171.5v437h174v-492l-2 -23q51 -89 113 -124t154 -35h124v833h175v-993h-299zM1884 1188q-53 0 -84 32t-31 91t30.5 91t84.5 32q55 0 85 -33.5t30 -89.5t-30 -89.5t-85 -33.5zM1530 1188q-48 0 -81.5 29t-33.5 94t33.5 94t81.5 29q55 0 85 -33.5t30 -89.5t-30 -89.5 t-85 -33.5zM1706 1464q-46 0 -76 26.5t-30 86.5q0 59 30 86t76 27q43 0 74.5 -27.5t31.5 -85.5q0 -60 -31.5 -86.5t-74.5 -26.5z"/>
<glyph arabic-form="isolated" glyph-name="uni0635" horiz-adv-x="2392" unicode="ص" d="M2064 160v325q0 189 -82 278t-249 89q-317 0 -531 -520v-172h862zM545 -492q-190 0 -301 140t-111 385q0 126 22 255.5t62 227.5h170q-70 -177 -70 -483q0 -175 70 -270t197 -95h100q178 0 261 81t83 245v999h174v-440q96 229 241 345t326 116q232 0 350.5 -126 t118.5 -394v-494h-1036q0 -248 -123 -370t-387 -122h-147z"/>
<glyph arabic-form="isolated" glyph-name="uni0636" horiz-adv-x="2392" unicode="ض" d="M2064 160v325q0 189 -82 278t-249 89q-317 0 -531 -520v-172h862zM545 -492q-190 0 -301 140t-111 385q0 126 22 255.5t62 227.5h170q-70 -177 -70 -483q0 -175 70 -270t197 -95h100q178 0 261 81t83 245v999h174v-440q96 229 241 345t326 116q232 0 350.5 -126 t118.5 -394v-494h-1036q0 -248 -123 -370t-387 -122h-147zM1726 1188q-53 0 -84 32t-31 91t30.5 91t84.5 32q55 0 85 -33.5t30 -89.5t-30 -89.5t-85 -33.5z"/>
<glyph arabic-form="isolated" glyph-name="uni0637" horiz-adv-x="1645" unicode="ط" d="M1337 160v325q0 189 -82 278t-249 89q-155 0 -289 -130.5t-242 -393.5v-168h862zM51 0q-10 0 -10 10v142q0 8 10 8h250v1396h174v-1003q96 229 241 345t326 116q232 0 350.5 -126t118.5 -394v-494h-1460z"/>
<glyph arabic-form="isolated" glyph-name="uni0638" horiz-adv-x="1645" unicode="ظ" d="M1337 160v325q0 189 -82 278t-249 89q-155 0 -289 -130.5t-242 -393.5v-168h862zM51 0q-10 0 -10 10v142q0 8 10 8h250v1396h174v-1003q96 229 241 345t326 116q232 0 350.5 -126t118.5 -394v-494h-1460zM999 1188q-53 0 -84 32t-31 91t30.5 91t84.5 32q55 0 85 -33.5 t30 -89.5t-30 -89.5t-85 -33.5z"/>
<glyph arabic-form="isolated" glyph-name="uni0639" horiz-adv-x="1096" unicode="ع" d="M559 -657q-198 0 -312 103.5t-114 291.5q0 227 264 403q-182 159 -182 408q0 142 65 247t180.5 161.5t258.5 56.5q88 0 162.5 -17.5t122.5 -42.5l-56 -153q-127 53 -239 53q-147 0 -227.5 -78.5t-80.5 -224.5q0 -106 33.5 -194.5t91.5 -139.5q171 85 353 139l49 -151 q-181 -45 -325.5 -118.5t-214 -157.5t-69.5 -175q0 -132 77 -193t237 -61q103 0 301 33l22 -141q-145 -31 -230 -40t-167 -9z"/>
<glyph arabic-form="isolated" glyph-name="uni063A" horiz-adv-x="1096" unicode="غ" d="M559 -657q-198 0 -312 103.5t-114 291.5q0 227 264 403q-182 159 -182 408q0 142 65 247t180.5 161.5t258.5 56.5q88 0 162.5 -17.5t122.5 -42.5l-56 -153q-127 53 -239 53q-147 0 -227.5 -78.5t-80.5 -224.5q0 -106 33.5 -194.5t91.5 -139.5q171 85 353 139l49 -151 q-181 -45 -325.5 -118.5t-214 -157.5t-69.5 -175q0 -132 77 -193t237 -61q103 0 301 33l22 -141q-145 -31 -230 -40t-167 -9zM625 1188q-53 0 -84 32t-31 91t30.5 91t84.5 32q55 0 85 -33.5t30 -89.5t-30 -89.5t-85 -33.5z"/>
<glyph arabic-form="isolated" glyph-name="uni0641" horiz-adv-x="2073" unicode="ف" d="M1724 160v674h-88q-182 0 -283.5 -95t-101.5 -268q0 -311 281 -311h192zM516 0q-177 0 -280 106.5t-103 290.5q0 68 14.5 157t36.5 151h164q-31 -148 -31 -293q0 -112 53 -182t140 -70h666q-48 52 -77.5 137t-29.5 172q0 240 150.5 382t410.5 142h268v-993h-1382z M1511 1188q-53 0 -84 32t-31 91t30.5 91t84.5 32q55 0 85 -33.5t30 -89.5t-30 -89.5t-85 -33.5z"/>
<glyph arabic-form="isolated" glyph-name="uni0642" horiz-adv-x="1794" unicode="ق" d="M1446 160v674h-88q-182 0 -283.5 -96t-101.5 -269q0 -160 69.5 -234.5t210.5 -74.5h193zM618 -492q-225 0 -355 133t-130 361q0 261 84 483h170q-70 -196 -70 -471q0 -166 88.5 -256t249.5 -90h414q200 0 288.5 77.5t88.5 240.5v14h-189q-227 0 -346.5 120t-119.5 347 q0 243 153 384.5t408 141.5h268v-1005q0 -480 -518 -480h-484zM1454 1188q-53 0 -84 32t-31 91t30.5 91t84.5 32q55 0 85 -33.5t30 -89.5t-30 -89.5t-85 -33.5zM1100 1188q-48 0 -81.5 29t-33.5 94t33.5 94t81.5 29q52 0 83 -31.5t31 -91.5q0 -59 -30.5 -91t-83.5 -32z"/>
<glyph arabic-form="isolated" glyph-name="uni0643" horiz-adv-x="1624" unicode="ك" d="M516 0q-186 0 -284.5 95t-98.5 272q0 136 51 276h154q-31 -146 -31 -262q0 -103 54.5 -162t148.5 -59h735v1396h174v-1556h-903zM586 731l96 14q-72 47 -72 129q0 87 57 136t152 49q76 0 135 -31l-30 -92q-43 25 -103 25q-45 0 -75.5 -25.5t-30.5 -79.5q0 -35 17.5 -59.5 t43.5 -36.5q24 5 100 15.5t105 10.5v-100q-17 0 -90 -7.5t-108 -12.5q-177 -25 -197 -29v94z"/>
<glyph arabic-form="isolated" glyph-name="uni0644" horiz-adv-x="1407" unicode="ل" d="M545 -492q-190 0 -301 140t-111 385q0 126 22 255.5t62 227.5h170q-70 -177 -70 -483q0 -175 70 -270t197 -95h100q178 0 261 81t83 245v1562h174v-1548q0 -248 -123 -374t-387 -126h-147z"/>
<glyph arabic-form="isolated" glyph-name="uni0645" horiz-adv-x="1329" unicode="م" d="M506 545q0 -95 16.5 -186.5t61.5 -198.5h145q137 0 210 93t73 269q0 129 -70.5 211t-171.5 82q-129 0 -240 -84q-17 -43 -20.5 -87.5t-3.5 -98.5zM451 0q-146 0 -146 -150v-505h-172v536q0 89 33 151t89.5 95t127.5 33h14q-75 195 -75 350q0 182 73 326q76 63 173 100 t202 37q128 0 225 -56.5t149 -160.5t52 -236q0 -161 -58.5 -278t-165 -179.5t-243.5 -62.5h-278z"/>
<glyph arabic-form="isolated" glyph-name="uni0646" horiz-adv-x="1376" unicode="ن" d="M545 -492q-192 0 -302 133t-110 361q0 245 84 453h170q-70 -177 -70 -441q0 -166 69 -256t198 -90h100q178 0 261 81t83 245v999h174v-985q0 -248 -123 -374t-387 -126h-147zM672 994q-53 0 -84 32t-31 91t30.5 91t84.5 32q55 0 85 -33.5t30 -89.5t-30 -89.5t-85 -33.5z "/>
<glyph arabic-form="isolated" glyph-name="uni0647" horiz-adv-x="1223" unicode="ه" d="M612 137q293 0 293 316q0 186 -78 294.5t-217 108.5q-125 0 -209 -112t-84 -291q0 -316 295 -316zM608 -20q-226 0 -350.5 123.5t-124.5 351.5q0 150 62.5 280t173 204.5t245.5 74.5q127 0 237.5 -76.5t174.5 -208.5t64 -274q0 -232 -121.5 -353.5t-360.5 -121.5z"/>
<glyph arabic-form="isolated" glyph-name="uni0648" horiz-adv-x="1149" unicode="و" d="M801 160v674h-88q-182 0 -283.5 -96t-101.5 -269q0 -160 69.5 -234.5t210.5 -74.5h193zM502 -492q-209 0 -369 105l82 137q66 -35 136 -58.5t155 -23.5q139 0 218 74.5t79 198.5v59h-201q-218 0 -337.5 120t-119.5 347q0 241 153 383.5t409 142.5h268v-1042 q0 -209 -123.5 -326t-349.5 -117z"/>
<glyph arabic-form="isolated" glyph-name="uni0649" horiz-adv-x="1718" unicode="ى" d="M545 -492q-192 0 -302 133t-110 361q0 107 17.5 193t54.5 176h170q-23 -57 -35.5 -109.5t-17.5 -101.5t-5 -146q0 -166 69 -256t198 -90h401q157 0 248.5 57t91.5 152q0 38 -26 74t-70 71t-150 99q-123 73 -172 115.5t-74.5 88t-25.5 99.5q0 122 90.5 257.5t224.5 223.5 t260 88q49 0 137.5 -28t127.5 -54l-74 -137q-30 15 -85.5 25t-98.5 10q-69 0 -160.5 -56t-155 -138t-63.5 -156q0 -69 153 -162q151 -92 214.5 -152t98.5 -129.5t35 -142.5q0 -171 -137 -268t-389 -97h-440z"/>
<glyph arabic-form="isolated" glyph-name="uni064A" horiz-adv-x="1718" unicode="ي" d="M545 -492q-192 0 -302 133t-110 361q0 107 17.5 193t54.5 176h170q-23 -57 -35.5 -109.5t-17.5 -101.5t-5 -146q0 -166 69 -256t198 -90h401q157 0 248.5 57t91.5 152q0 38 -26 74t-70 71t-150 99q-123 73 -172 115.5t-74.5 88t-25.5 99.5q0 122 90.5 257.5t224.5 223.5 t260 88q49 0 137.5 -28t127.5 -54l-74 -137q-30 15 -85.5 25t-98.5 10q-69 0 -160.5 -56t-155 -138t-63.5 -156q0 -69 153 -162q151 -92 214.5 -152t98.5 -129.5t35 -142.5q0 -171 -137 -268t-389 -97h-440zM962 -901q-53 0 -84 32t-31 91t30.5 91t84.5 32q55 0 85 -33.5 t30 -89.5t-30 -89.5t-85 -33.5zM608 -901q-48 0 -81.5 29t-33.5 94t33.5 94t81.5 29q52 0 83 -31.5t31 -91.5q0 -59 -30.5 -91t-83.5 -32z"/>
<glyph glyph-name="uni066E.init" horiz-adv-x="616" unicode="ٮ" d="M-10 0q-10 0 -10 10v142q0 8 10 8h270v833h182v-993h-452z"/>
<glyph glyph-name="uni066E.medi" horiz-adv-x="698" unicode="ٮ" d="M-10 0q-10 0 -10 10v142q0 8 10 8h270v833h182v-833h267q10 0 10 -8v-142q0 -10 -10 -10h-719z"/>
<glyph glyph-name="uni066E.fina" horiz-adv-x="1681" unicode="ٮ" d="M516 0q-177 0 -280 106.5t-103 290.5q0 68 14.5 157t36.5 151h164q-31 -148 -31 -293q0 -112 53 -182t140 -70h735v833h174v-833h273q10 0 10 -8v-142q0 -10 -10 -10h-1176z"/>
<glyph glyph-name="uni066F.init" horiz-adv-x="1198" unicode="ٯ" d="M-10 0q-10 0 -10 10v142q0 8 10 8h311q-52 59 -79 143t-27 166q0 240 150.5 382t410.5 142h268v-993h-1034zM850 160v674h-88q-182 0 -283.5 -95t-101.5 -268q0 -311 280 -311h193z"/>
<glyph glyph-name="uni066F.medi" horiz-adv-x="1231" unicode="ٯ" d="M-10 0q-10 0 -10 10v142q0 8 10 8h311q-52 59 -79 143t-27 166q0 244 151.5 384t409.5 140h268v-833h217q6 0 9 -5l1 -5v-142q0 -8 -10 -8h-1251zM850 160v674h-88q-183 0 -284 -96.5t-101 -268.5q0 -309 280 -309h193z"/>
<glyph glyph-name="uni066F.fina" horiz-adv-x="1835" unicode="ٯ" d="M1845 160q10 0 10 -8v-142q0 -10 -10 -10h-225v-12q0 -480 -518 -480h-484q-225 0 -355 133t-130 361q0 261 84 483h170q-70 -196 -70 -471q0 -166 88.5 -256t249.5 -90h414q200 0 288.5 77.5t88.5 240.5v14h-189q-227 0 -346.5 120t-119.5 347q0 243 153 384.5 t408 141.5h268v-833h225zM1446 160v674h-88q-182 0 -283.5 -96t-101.5 -269q0 -160 69.5 -234.5t210.5 -74.5h193z"/>
<glyph arabic-form="isolated" glyph-name="uni0671" horiz-adv-x="592" unicode="ٱ" d="M205 1434h182v-1434h-182v1434zM422 1671q0 60 -17.5 86.5t-54.5 26.5q-36 0 -68.5 -32t-47.5 -81h188zM27 1671h94q72 209 229 209q85 0 130.5 -55t45.5 -154v-94h-499v94z"/>
<glyph glyph-name="uni0672.fina" horiz-adv-x="647" unicode="ٲ" d="M205 1434h182v-1274h270q11 0 11 -8v-142q0 -10 -11 -10h-452v1434zM217 1552q-27 0 -47.5 5t-38 10.5t-32.5 10.5t-31 5q-45 0 -97 -45l-47 43q44 55 74 73.5t57 18.5q20 0 59 -15q39 -16 79 -16q-72 47 -72 130q0 88 57.5 136t151.5 48q80 0 135 -31l-31 -92 q-41 25 -102 25q-45 0 -76 -25.5t-31 -79.5q0 -35 18 -59.5t44 -36.5q22 2 96.5 13.5t108.5 19.5v-101q-31 -7 -137 -22t-138 -15z"/>
<glyph glyph-name="uni0673.fina" horiz-adv-x="647" unicode="ٳ" d="M205 1556h182v-1396h270q11 0 11 -8v-142q0 -10 -11 -10h-452v1556zM225 -522q-42 0 -85 15q-44 15 -64 15q-45 0 -97 -45l-47 43q45 57 74.5 75t56.5 18q20 0 59 -15q39 -16 79 -16q-29 18 -50.5 51t-21.5 78q0 86 55.5 135t153.5 49q80 0 135 -31l-31 -92 q-41 25 -102 25q-45 0 -76 -25.5t-31 -79.5q0 -65 62 -96q22 2 96.5 13.5t108.5 19.5v-100q-54 -12 -154.5 -24.5t-120.5 -12.5z"/>
<glyph glyph-name="uni0675.fina" horiz-adv-x="647" unicode="ٵ" d="M205 1434h182v-1274h270q11 0 11 -8v-142q0 -10 -11 -10h-452v1434zM489 1107l97 14q-72 47 -72 130q0 88 57.5 136t151.5 48q80 0 135 -31l-31 -92q-41 25 -102 25q-45 0 -76 -25.5t-31 -79.5q0 -35 18 -59.5t44 -36.5q20 5 98 15.5t107 10.5v-100q-16 0 -72.5 -5.5 t-208.5 -25.5l-115 -18v94z"/>
<glyph glyph-name="uni0676.fina" horiz-adv-x="1133" unicode="ٶ" d="M975 -49q0 -209 -123.5 -326t-349.5 -117q-209 0 -369 105l82 137q66 -35 136 -58.5t155 -23.5q139 0 218 74.5t79 198.5v59h-201q-218 0 -337.5 120t-119.5 347q0 241 153 383.5t409 142.5h268v-833h168q10 0 10 -8v-142q0 -10 -10 -10h-168v-49zM801 160v674h-88 q-182 0 -283.5 -96t-101.5 -269q0 -160 69.5 -234.5t210.5 -74.5h193zM782 1267l97 14q-72 47 -72 130q0 88 57.5 136t151.5 48q80 0 135 -31l-31 -92q-41 25 -102 25q-45 0 -76 -25.5t-31 -79.5q0 -35 18 -59.5t44 -36.5q20 5 98 15.5t107 10.5v-100q-16 0 -72.5 -5.5 t-208.5 -25.5l-115 -18v94z"/>
<glyph glyph-name="uni0677.fina" horiz-adv-x="1133" unicode="ٷ" d="M975 -49q0 -209 -123.5 -326t-349.5 -117q-209 0 -369 105l82 137q66 -35 136 -58.5t155 -23.5q139 0 218 74.5t79 198.5v59h-201q-218 0 -337.5 120t-119.5 347q0 241 153 383.5t409 142.5h268v-833h168q10 0 10 -8v-142q0 -10 -10 -10h-168v-49zM801 160v674h-88 q-182 0 -283.5 -96t-101.5 -269q0 -160 69.5 -234.5t210.5 -74.5h193zM782 1267l97 14q-72 47 -72 130q0 88 57.5 136t151.5 48q80 0 135 -31l-31 -92q-41 25 -102 25q-45 0 -76 -25.5t-31 -79.5q0 -35 18 -59.5t44 -36.5q20 5 98 15.5t107 10.5v-100q-16 0 -72.5 -5.5 t-208.5 -25.5l-115 -18v94zM385 1271q54 29 76.5 66.5t22.5 72.5q0 32 -21 52t-53 20q-31 0 -53.5 -20t-22.5 -62q0 -63 51 -129zM197 1119q-114 0 -209 68l59 86q76 -51 146 -51q60 0 102 14q-65 83 -65 174q0 78 51 124t133 46t129 -46.5t47 -115.5q0 -73 -54.5 -143.5 t-146.5 -113t-192 -42.5z"/>
<glyph glyph-name="uni0678.fina" horiz-adv-x="1974" unicode="ٸ" d="M545 -492q-192 0 -302 133t-110 361q0 107 17.5 193t54.5 176h170q-23 -57 -35.5 -109.5t-17.5 -101.5t-5 -146q0 -166 69 -256t198 -90h381q146 0 242 54.5t96 130.5q0 42 -38 72t-115 52q-155 44 -212.5 77t-88 82t-30.5 116q0 118 70.5 228t182.5 178.5t224 68.5 q69 0 122.5 -25t100.5 -72.5t117 -157.5q88 -142 130.5 -191t72.5 -72.5t63 -36t72 -12.5h11q10 0 10 -8v-142q0 -10 -10 -10h-11q-86 0 -165.5 38.5t-163.5 127.5q-24 25 -105 141q-99 140 -157 188t-109 48q-56 0 -120 -43t-107 -107.5t-43 -116.5q0 -34 36.5 -61 t117.5 -51q147 -43 208.5 -75t93 -75.5t31.5 -99.5q0 -406 -526 -406h-420zM1044 980l97 14q-72 47 -72 130q0 88 57.5 136t151.5 48q80 0 135 -31l-31 -92q-41 25 -102 25q-45 0 -76 -25.5t-31 -79.5q0 -35 18 -59.5t44 -36.5q20 5 98 15.5t107 10.5v-100q-16 0 -72.5 -5.5 t-208.5 -25.5l-115 -18v94z"/>
<glyph arabic-form="isolated" glyph-name="uni0679" horiz-adv-x="1593" unicode="ٹ" d="M516 0q-177 0 -280 106.5t-103 290.5q0 68 14.5 157t36.5 151h164q-31 -148 -31 -293q0 -112 53 -182t140 -70h735v833h174v-993h-903zM923 1082v51q0 54 -18 80.5t-61 26.5q-48 0 -84.5 -32.5t-65.5 -104.5v-21h229zM581 1082h31v373h82v-260q25 60 62.5 96.5t97.5 36.5 q151 0 151 -178v-156h-424v88z"/>
<glyph arabic-form="initial" glyph-name="uni067A.init" horiz-adv-x="616" unicode="ٺ" d="M-10 0q-10 0 -10 10v142q0 8 10 8h270v833h182v-993h-452zM340 1559q-53 0 -84 32t-31 90q0 59 30.5 91t84.5 32q55 0 85 -33.5t30 -89.5q0 -55 -30 -88.5t-85 -33.5zM340 1188q-53 0 -84 32t-31 91t30.5 91t84.5 32q55 0 85 -33.5t30 -89.5t-30 -89.5t-85 -33.5z"/>
<glyph arabic-form="medial" glyph-name="uni067A.medi" horiz-adv-x="801" unicode="ٺ" d="M-10 0q-10 0 -10 10v142q0 8 10 8h332v833h182v-833h307q10 0 10 -8v-142q0 -10 -10 -10h-821zM412 1559q-53 0 -84 32t-31 90q0 59 30.5 91t84.5 32q55 0 85 -33.5t30 -89.5q0 -55 -30 -88.5t-85 -33.5zM412 1188q-53 0 -84 32t-31 91t30.5 91t84.5 32q55 0 85 -33.5 t30 -89.5t-30 -89.5t-85 -33.5z"/>
<glyph arabic-form="final" glyph-name="uni067A.fina" horiz-adv-x="1681" unicode="ٺ" d="M516 0q-177 0 -280 106.5t-103 290.5q0 68 14.5 157t36.5 151h164q-31 -148 -31 -293q0 -112 53 -182t140 -70h735v833h174v-833h273q10 0 10 -8v-142q0 -10 -10 -10h-1176zM772 1120q-53 0 -84 32t-31 90q0 59 30.5 91t84.5 32q55 0 85 -33.5t30 -89.5q0 -55 -30 -88.5 t-85 -33.5zM772 749q-53 0 -84 32t-31 91t30.5 91t84.5 32q55 0 85 -33.5t30 -89.5t-30 -89.5t-85 -33.5z"/>
<glyph arabic-form="initial" glyph-name="uni067B.init" horiz-adv-x="616" unicode="ٻ" d="M-10 0q-10 0 -10 10v142q0 8 10 8h270v833h182v-993h-452zM340 -410q-53 0 -84 32t-31 91t30.5 91t84.5 32q55 0 85 -33.5t30 -89.5t-30 -89.5t-85 -33.5zM340 -780q-53 0 -84 32t-31 91q0 58 31 90t84 32q54 0 84.5 -33t30.5 -89t-30 -89.5t-85 -33.5z"/>
<glyph arabic-form="medial" glyph-name="uni067B.medi" horiz-adv-x="698" unicode="ٻ" d="M-10 0q-10 0 -10 10v142q0 8 10 8h270v833h182v-833h267q10 0 10 -8v-142q0 -10 -10 -10h-719zM340 -410q-53 0 -84 32t-31 91t30.5 91t84.5 32q55 0 85 -33.5t30 -89.5t-30 -89.5t-85 -33.5zM340 -780q-53 0 -84 32t-31 91q0 58 31 90t84 32q54 0 84.5 -33t30.5 -89 t-30 -89.5t-85 -33.5z"/>
<glyph arabic-form="final" glyph-name="uni067B.fina" horiz-adv-x="1681" unicode="ٻ" d="M516 0q-177 0 -280 106.5t-103 290.5q0 68 14.5 157t36.5 151h164q-31 -148 -31 -293q0 -112 53 -182t140 -70h735v833h174v-833h273q10 0 10 -8v-142q0 -10 -10 -10h-1176zM854 -410q-53 0 -84 32t-31 91t30.5 91t84.5 32q55 0 85 -33.5t30 -89.5t-30 -89.5t-85 -33.5z M854 -780q-53 0 -84 32t-31 91q0 58 31 90t84 32q54 0 84.5 -33t30.5 -89t-30 -89.5t-85 -33.5z"/>
<glyph glyph-name="uni067C.init" horiz-adv-x="766" unicode="ټ" d="M-10 0q-10 0 -10 10v142q0 8 10 8h393v833h182v-993h-575zM639 1188q-53 0 -84 32t-31 91t30.5 91t84.5 32q55 0 85 -33.5t30 -89.5t-30 -89.5t-85 -33.5zM285 1188q-48 0 -81.5 29t-33.5 94t33.5 94t81.5 29q52 0 83 -31.5t31 -91.5q0 -59 -30.5 -91t-83.5 -32z M299 -224q49 0 81 29t32 83t-32 83.5t-81 29.5q-50 0 -81.5 -29.5t-31.5 -83.5q0 -112 113 -112zM299 -327q-102 0 -162.5 57.5t-60.5 157.5q0 101 61 158t162 57q103 0 166 -58.5t63 -154.5q0 -99 -63 -158t-166 -59z"/>
<glyph glyph-name="uni067C.medi" horiz-adv-x="801" unicode="ټ" d="M-10 0q-10 0 -10 10v142q0 8 10 8h332v833h182v-833h307q10 0 10 -8v-142q0 -10 -10 -10h-821zM588 1188q-53 0 -84 32t-31 91t30.5 91t84.5 32q55 0 85 -33.5t30 -89.5t-30 -89.5t-85 -33.5zM234 1188q-48 0 -81.5 29t-33.5 94t33.5 94t81.5 29q52 0 83 -31.5t31 -91.5 q0 -59 -30.5 -91t-83.5 -32zM424 -224q49 0 81 29t32 83t-32 83.5t-81 29.5q-50 0 -81.5 -29.5t-31.5 -83.5q0 -112 113 -112zM424 -327q-102 0 -162.5 57.5t-60.5 157.5q0 101 61 158t162 57q103 0 166 -58.5t63 -154.5q0 -99 -63 -158t-166 -59z"/>
<glyph glyph-name="uni067C.fina" horiz-adv-x="1681" unicode="ټ" d="M516 0q-177 0 -280 106.5t-103 290.5q0 68 14.5 157t36.5 151h164q-31 -148 -31 -293q0 -112 53 -182t140 -70h735v833h174v-833h273q10 0 10 -8v-142q0 -10 -10 -10h-1176zM827 -224q49 0 81 29t32 83t-32 83.5t-81 29.5q-50 0 -81.5 -29.5t-31.5 -83.5q0 -112 113 -112 zM827 -327q-102 0 -162.5 57.5t-60.5 157.5q0 101 61 158t162 57q103 0 166 -58.5t63 -154.5q0 -99 -63 -158t-166 -59zM952 994q-53 0 -84 32t-31 91t30.5 91t84.5 32q55 0 85 -33.5t30 -89.5t-30 -89.5t-85 -33.5zM598 994q-48 0 -81.5 29t-33.5 94t33.5 94t81.5 29 q52 0 83 -31.5t31 -91.5q0 -59 -30.5 -91t-83.5 -32z"/>
<glyph glyph-name="uni067D.init" horiz-adv-x="766" unicode="ٽ" d="M-10 0q-10 0 -10 10v142q0 8 10 8h393v833h182v-993h-575zM285 1688q53 0 84 -32t31 -91t-30.5 -91t-84.5 -32q-53 0 -84 32t-31 91t30.5 91t84.5 32zM639 1688q48 0 81.5 -29t33.5 -94t-33.5 -94t-81.5 -29q-55 0 -85 33.5t-30 89.5t30 89.5t85 33.5zM463 1411 q46 0 76 -26.5t30 -86.5q0 -58 -30 -85t-76 -27q-43 0 -74.5 27t-31.5 85q0 60 31.5 86.5t74.5 26.5z"/>
<glyph glyph-name="uni067D.medi" horiz-adv-x="801" unicode="ٽ" d="M-10 0q-10 0 -10 10v142q0 8 10 8h332v833h182v-833h307q10 0 10 -8v-142q0 -10 -10 -10h-821zM236 1688q53 0 84 -32t31 -91t-30.5 -91t-84.5 -32q-53 0 -84 32t-31 91t30.5 91t84.5 32zM590 1688q48 0 81.5 -29t33.5 -94t-33.5 -94t-81.5 -29q-55 0 -85 33.5t-30 89.5 t30 89.5t85 33.5zM414 1411q46 0 76 -26.5t30 -86.5q0 -58 -30 -85t-76 -27q-43 0 -74.5 27t-31.5 85q0 60 31.5 86.5t74.5 26.5z"/>
<glyph glyph-name="uni067D.fina" horiz-adv-x="1681" unicode="ٽ" d="M516 0q-177 0 -280 106.5t-103 290.5q0 68 14.5 157t36.5 151h164q-31 -148 -31 -293q0 -112 53 -182t140 -70h735v833h174v-833h273q10 0 10 -8v-142q0 -10 -10 -10h-1176zM608 1240q53 0 84 -32t31 -91t-30.5 -91t-84.5 -32q-53 0 -84 32t-31 91t30.5 91t84.5 32z M962 1240q48 0 81.5 -29t33.5 -94t-33.5 -94t-81.5 -29q-55 0 -85 33.5t-30 89.5t30 89.5t85 33.5zM786 963q46 0 76 -26.5t30 -86.5q0 -58 -30 -85t-76 -27q-43 0 -74.5 27t-31.5 85q0 60 31.5 86.5t74.5 26.5z"/>
<glyph arabic-form="isolated" glyph-name="uni067E" horiz-adv-x="1593" unicode="پ" d="M516 0q-177 0 -280 106.5t-103 290.5q0 68 14.5 157t36.5 151h164q-31 -148 -31 -293q0 -112 53 -182t140 -70h735v833h174v-993h-903zM1020 -438q-53 0 -84 32t-31 91q0 58 31 90t84 32q54 0 84.5 -33t30.5 -89t-30 -89.5t-85 -33.5zM666 -438q-48 0 -81.5 29t-33.5 94 q0 64 33.5 93t81.5 29q54 0 84.5 -33t30.5 -89t-30 -89.5t-85 -33.5zM842 -688q-46 0 -76 26.5t-30 86.5q0 58 30 85t76 27q43 0 74.5 -27t31.5 -85q0 -60 -31.5 -86.5t-74.5 -26.5z"/>
<glyph arabic-form="initial" glyph-name="uni067F.init" horiz-adv-x="766" unicode="ٿ" d="M-10 0q-10 0 -10 10v142q0 8 10 8h393v833h182v-993h-575zM615 1561q-44 0 -73.5 25.5t-29.5 84.5t29.5 85t73.5 26q47 0 75.5 -29.5t28.5 -81.5t-28 -81t-76 -29zM297 1561q-49 0 -76.5 28t-27.5 82q0 58 30.5 84.5t73.5 26.5q42 0 72.5 -26t30.5 -85q0 -53 -27.5 -81.5 t-75.5 -28.5zM615 1219q-44 0 -73.5 25.5t-29.5 84.5t29.5 85t73.5 26q47 0 75.5 -29.5t28.5 -81.5t-28 -81t-76 -29zM297 1219q-49 0 -76.5 28t-27.5 82q0 58 30.5 84.5t73.5 26.5q42 0 72.5 -26t30.5 -85q0 -53 -27.5 -81.5t-75.5 -28.5z"/>
<glyph arabic-form="medial" glyph-name="uni067F.medi" horiz-adv-x="801" unicode="ٿ" d="M-10 0q-10 0 -10 10v142q0 8 10 8h332v833h182v-833h307q10 0 10 -8v-142q0 -10 -10 -10h-821zM564 1561q-44 0 -73.5 25.5t-29.5 84.5t29.5 85t73.5 26q47 0 75.5 -29.5t28.5 -81.5t-28 -81t-76 -29zM246 1561q-49 0 -76.5 28t-27.5 82q0 58 30.5 84.5t73.5 26.5 q42 0 72.5 -26t30.5 -85q0 -53 -27.5 -81.5t-75.5 -28.5zM564 1219q-44 0 -73.5 25.5t-29.5 84.5t29.5 85t73.5 26q47 0 75.5 -29.5t28.5 -81.5t-28 -81t-76 -29zM246 1219q-49 0 -76.5 28t-27.5 82q0 58 30.5 84.5t73.5 26.5q42 0 72.5 -26t30.5 -85q0 -53 -27.5 -81.5 t-75.5 -28.5z"/>
<glyph arabic-form="final" glyph-name="uni067F.fina" horiz-adv-x="1681" unicode="ٿ" d="M516 0q-177 0 -280 106.5t-103 290.5q0 68 14.5 157t36.5 151h164q-31 -148 -31 -293q0 -112 53 -182t140 -70h735v833h174v-833h273q10 0 10 -8v-142q0 -10 -10 -10h-1176zM944 1134q-44 0 -73.5 25.5t-29.5 84.5t29.5 85t73.5 26q47 0 75.5 -29.5t28.5 -81.5t-28 -81 t-76 -29zM626 1134q-49 0 -76.5 28t-27.5 82q0 58 30.5 84.5t73.5 26.5q42 0 72.5 -26t30.5 -85q0 -53 -27.5 -81.5t-75.5 -28.5zM944 792q-44 0 -73.5 25.5t-29.5 84.5t29.5 85t73.5 26q47 0 75.5 -29.5t28.5 -81.5t-28 -81t-76 -29zM626 792q-49 0 -76.5 28t-27.5 82 q0 58 30.5 84.5t73.5 26.5q42 0 72.5 -26t30.5 -85q0 -53 -27.5 -81.5t-75.5 -28.5z"/>
<glyph arabic-form="initial" glyph-name="uni0680.init" horiz-adv-x="766" unicode="ڀ" d="M-10 0q-10 0 -10 10v142q0 8 10 8h393v833h182v-993h-575zM443 -420q-44 0 -73.5 26t-29.5 85t29.5 84.5t73.5 25.5q49 0 76.5 -29.5t27.5 -80.5q0 -52 -28.5 -81.5t-75.5 -29.5zM125 -420q-47 0 -75.5 28.5t-28.5 82.5q0 58 30.5 84t73.5 26q42 0 72.5 -26t30.5 -84 q0 -59 -30.5 -85t-72.5 -26zM443 -762q-44 0 -73.5 26t-29.5 85t29.5 84.5t73.5 25.5q49 0 76.5 -29.5t27.5 -80.5q0 -52 -28.5 -81.5t-75.5 -29.5zM125 -762q-47 0 -75.5 28.5t-28.5 82.5q0 58 30.5 84t73.5 26q42 0 72.5 -26t30.5 -84q0 -59 -30.5 -85t-72.5 -26z"/>
<glyph arabic-form="medial" glyph-name="uni0680.medi" horiz-adv-x="801" unicode="ڀ" d="M-10 0q-10 0 -10 10v142q0 8 10 8h332v833h182v-833h307q10 0 10 -8v-142q0 -10 -10 -10h-821zM576 -420q-44 0 -73.5 26t-29.5 85t29.5 84.5t73.5 25.5q49 0 76.5 -29.5t27.5 -80.5q0 -52 -28.5 -81.5t-75.5 -29.5zM258 -420q-47 0 -75.5 28.5t-28.5 82.5q0 58 30.5 84 t73.5 26q42 0 72.5 -26t30.5 -84q0 -59 -30.5 -85t-72.5 -26zM576 -762q-44 0 -73.5 26t-29.5 85t29.5 84.5t73.5 25.5q49 0 76.5 -29.5t27.5 -80.5q0 -52 -28.5 -81.5t-75.5 -29.5zM258 -762q-47 0 -75.5 28.5t-28.5 82.5q0 58 30.5 84t73.5 26q42 0 72.5 -26t30.5 -84 q0 -59 -30.5 -85t-72.5 -26z"/>
<glyph arabic-form="final" glyph-name="uni0680.fina" horiz-adv-x="1681" unicode="ڀ" d="M516 0q-177 0 -280 106.5t-103 290.5q0 68 14.5 157t36.5 151h164q-31 -148 -31 -293q0 -112 53 -182t140 -70h735v833h174v-833h273q10 0 10 -8v-142q0 -10 -10 -10h-1176zM947 -420q-44 0 -73.5 26t-29.5 85t29.5 84.5t73.5 25.5q49 0 76.5 -29.5t27.5 -80.5 q0 -52 -28.5 -81.5t-75.5 -29.5zM629 -420q-47 0 -75.5 28.5t-28.5 82.5q0 58 30.5 84t73.5 26q42 0 72.5 -26t30.5 -84q0 -59 -30.5 -85t-72.5 -26zM947 -762q-44 0 -73.5 26t-29.5 85t29.5 84.5t73.5 25.5q49 0 76.5 -29.5t27.5 -80.5q0 -52 -28.5 -81.5t-75.5 -29.5z M629 -762q-47 0 -75.5 28.5t-28.5 82.5q0 58 30.5 84t73.5 26q42 0 72.5 -26t30.5 -84q0 -59 -30.5 -85t-72.5 -26z"/>
<glyph glyph-name="uni0681.init" horiz-adv-x="1188" unicode="ځ" d="M-10 0q-10 0 -10 10v142q0 8 10 8h878q-75 75 -129 375q-30 177 -87 248t-171 71q-142 0 -297 -82l-71 141q88 57 177.5 79t192.5 22q125 0 209 -45t133.5 -133.5t75.5 -253.5q30 -183 67.5 -282.5t86.5 -143.5v-156h-1065zM248 1275l97 14q-72 47 -72 130q0 88 57.5 136 t151.5 48q80 0 135 -31l-31 -92q-41 25 -102 25q-45 0 -76 -25.5t-31 -79.5q0 -35 18 -59.5t44 -36.5q20 5 98 15.5t107 10.5v-100q-16 0 -72.5 -5.5t-208.5 -25.5l-115 -18v94z"/>
<glyph glyph-name="uni0681.medi" horiz-adv-x="1176" unicode="ځ" d="M-10 0q-10 0 -10 10v142q0 8 10 8h878q-79 79 -129 375q-29 174 -87 246.5t-171 72.5q-142 0 -297 -82l-71 141q88 57 177.5 79t192.5 22q125 0 209 -45t133.5 -133.5t75.5 -253.5q47 -321 148 -422h137q10 0 10 -8v-142q0 -10 -10 -10h-1196zM248 1275l97 14 q-72 47 -72 130q0 88 57.5 136t151.5 48q80 0 135 -31l-31 -92q-41 25 -102 25q-45 0 -76 -25.5t-31 -79.5q0 -35 18 -59.5t44 -36.5q20 5 98 15.5t107 10.5v-100q-16 0 -72.5 -5.5t-208.5 -25.5l-115 -18v94z"/>
<glyph glyph-name="uni0681.fina" horiz-adv-x="1257" unicode="ځ" d="M518 -657q-198 0 -312 103.5t-114 291.5q0 130 77 239t241 199t452 174q-22 70 -41 185q-27 162 -100.5 240.5t-198.5 78.5q-73 0 -176 -29.5t-182 -72.5l-72 141q79 51 198 86t234 35q392 0 459 -432q32 -196 63 -271t81 -113t130 -38h11q10 0 10 -8v-142q0 -10 -10 -10 h-11q-112 0 -195.5 48.5t-141.5 156.5q-245 -67 -380 -133.5t-198 -145.5t-63 -172q0 -131 76 -192.5t237 -61.5q103 0 301 33l22 -141q-145 -31 -230 -40t-167 -9zM248 1275l97 14q-72 47 -72 130q0 88 57.5 136t151.5 48q80 0 135 -31l-31 -92q-41 25 -102 25 q-45 0 -76 -25.5t-31 -79.5q0 -35 18 -59.5t44 -36.5q20 5 98 15.5t107 10.5v-100q-16 0 -72.5 -5.5t-208.5 -25.5l-115 -18v94z"/>
<glyph glyph-name="uni0682.init" horiz-adv-x="1188" unicode="ڂ" d="M-10 0q-10 0 -10 10v142q0 8 10 8h878q-75 75 -129 375q-30 177 -87 248t-171 71q-142 0 -297 -82l-71 141q88 57 177.5 79t192.5 22q125 0 209 -45t133.5 -133.5t75.5 -253.5q30 -183 67.5 -282.5t86.5 -143.5v-156h-1065zM442 1559q-53 0 -84 32t-31 90q0 59 30.5 91 t84.5 32q55 0 85 -33.5t30 -89.5q0 -55 -30 -88.5t-85 -33.5zM442 1188q-53 0 -84 32t-31 91t30.5 91t84.5 32q55 0 85 -33.5t30 -89.5t-30 -89.5t-85 -33.5z"/>
<glyph glyph-name="uni0682.medi" horiz-adv-x="1176" unicode="ڂ" d="M-10 0q-10 0 -10 10v142q0 8 10 8h878q-79 79 -129 375q-29 174 -87 246.5t-171 72.5q-142 0 -297 -82l-71 141q88 57 177.5 79t192.5 22q125 0 209 -45t133.5 -133.5t75.5 -253.5q47 -321 148 -422h137q10 0 10 -8v-142q0 -10 -10 -10h-1196zM442 1559q-53 0 -84 32 t-31 90q0 59 30.5 91t84.5 32q55 0 85 -33.5t30 -89.5q0 -55 -30 -88.5t-85 -33.5zM442 1188q-53 0 -84 32t-31 91t30.5 91t84.5 32q55 0 85 -33.5t30 -89.5t-30 -89.5t-85 -33.5z"/>
<glyph glyph-name="uni0682.fina" horiz-adv-x="1257" unicode="ڂ" d="M518 -657q-198 0 -312 103.5t-114 291.5q0 130 77 239t241 199t452 174q-22 70 -41 185q-27 162 -100.5 240.5t-198.5 78.5q-73 0 -176 -29.5t-182 -72.5l-72 141q79 51 198 86t234 35q392 0 459 -432q32 -196 63 -271t81 -113t130 -38h11q10 0 10 -8v-142q0 -10 -10 -10 h-11q-112 0 -195.5 48.5t-141.5 156.5q-245 -67 -380 -133.5t-198 -145.5t-63 -172q0 -131 76 -192.5t237 -61.5q103 0 301 33l22 -141q-145 -31 -230 -40t-167 -9zM442 1559q-53 0 -84 32t-31 90q0 59 30.5 91t84.5 32q55 0 85 -33.5t30 -89.5q0 -55 -30 -88.5t-85 -33.5z M442 1188q-53 0 -84 32t-31 91t30.5 91t84.5 32q55 0 85 -33.5t30 -89.5t-30 -89.5t-85 -33.5z"/>
<glyph arabic-form="initial" glyph-name="uni0683.init" horiz-adv-x="1188" unicode="ڃ" d="M-10 0q-10 0 -10 10v142q0 8 10 8h878q-75 75 -129 375q-30 177 -87 248t-171 71q-142 0 -297 -82l-71 141q88 57 177.5 79t192.5 22q125 0 209 -45t133.5 -133.5t75.5 -253.5q30 -183 67.5 -282.5t86.5 -143.5v-156h-1065zM674 -410q-53 0 -84 32t-31 91t30.5 91 t84.5 32q55 0 85 -33.5t30 -89.5t-30 -89.5t-85 -33.5zM320 -410q-48 0 -81.5 29t-33.5 94t33.5 94t81.5 29q52 0 83 -31.5t31 -91.5q0 -59 -30.5 -91t-83.5 -32z"/>
<glyph arabic-form="medial" glyph-name="uni0683.medi" horiz-adv-x="1176" unicode="ڃ" d="M-10 0q-10 0 -10 10v142q0 8 10 8h878q-79 79 -129 375q-29 174 -87 246.5t-171 72.5q-142 0 -297 -82l-71 141q88 57 177.5 79t192.5 22q125 0 209 -45t133.5 -133.5t75.5 -253.5q47 -321 148 -422h137q10 0 10 -8v-142q0 -10 -10 -10h-1196zM674 -410q-53 0 -84 32 t-31 91t30.5 91t84.5 32q55 0 85 -33.5t30 -89.5t-30 -89.5t-85 -33.5zM320 -410q-48 0 -81.5 29t-33.5 94t33.5 94t81.5 29q52 0 83 -31.5t31 -91.5q0 -59 -30.5 -91t-83.5 -32z"/>
<glyph arabic-form="final" glyph-name="uni0683.fina" horiz-adv-x="1257" unicode="ڃ" d="M518 -657q-198 0 -312 103.5t-114 291.5q0 130 77 239t241 199t452 174q-22 70 -41 185q-27 162 -100.5 240.5t-198.5 78.5q-73 0 -176 -29.5t-182 -72.5l-72 141q79 51 198 86t234 35q392 0 459 -432q32 -196 63 -271t81 -113t130 -38h11q10 0 10 -8v-142q0 -10 -10 -10 h-11q-112 0 -195.5 48.5t-141.5 156.5q-245 -67 -380 -133.5t-198 -145.5t-63 -172q0 -131 76 -192.5t237 -61.5q103 0 301 33l22 -141q-145 -31 -230 -40t-167 -9zM962 -340q-53 0 -84 32t-31 91t30.5 91t84.5 32q55 0 85 -33.5t30 -89.5t-30 -89.5t-85 -33.5zM608 -340 q-48 0 -81.5 29t-33.5 94t33.5 94t81.5 29q52 0 83 -31.5t31 -91.5q0 -59 -30.5 -91t-83.5 -32z"/>
<glyph arabic-form="initial" glyph-name="uni0684.init" horiz-adv-x="1188" unicode="ڄ" d="M-10 0q-10 0 -10 10v142q0 8 10 8h878q-75 75 -129 375q-30 177 -87 248t-171 71q-142 0 -297 -82l-71 141q88 57 177.5 79t192.5 22q125 0 209 -45t133.5 -133.5t75.5 -253.5q30 -183 67.5 -282.5t86.5 -143.5v-156h-1065zM479 -410q-53 0 -84 32t-31 91t30.5 91 t84.5 32q55 0 85 -33.5t30 -89.5t-30 -89.5t-85 -33.5zM479 -780q-53 0 -84 32t-31 91q0 58 31 90t84 32q54 0 84.5 -33t30.5 -89t-30 -89.5t-85 -33.5z"/>
<glyph arabic-form="medial" glyph-name="uni0684.medi" horiz-adv-x="1176" unicode="ڄ" d="M-10 0q-10 0 -10 10v142q0 8 10 8h878q-79 79 -129 375q-29 174 -87 246.5t-171 72.5q-142 0 -297 -82l-71 141q88 57 177.5 79t192.5 22q125 0 209 -45t133.5 -133.5t75.5 -253.5q47 -321 148 -422h137q10 0 10 -8v-142q0 -10 -10 -10h-1196zM479 -410q-53 0 -84 32 t-31 91t30.5 91t84.5 32q55 0 85 -33.5t30 -89.5t-30 -89.5t-85 -33.5zM479 -780q-53 0 -84 32t-31 91q0 58 31 90t84 32q54 0 84.5 -33t30.5 -89t-30 -89.5t-85 -33.5z"/>
<glyph arabic-form="final" glyph-name="uni0684.fina" horiz-adv-x="1257" unicode="ڄ" d="M518 -657q-198 0 -312 103.5t-114 291.5q0 130 77 239t241 199t452 174q-22 70 -41 185q-27 162 -100.5 240.5t-198.5 78.5q-73 0 -176 -29.5t-182 -72.5l-72 141q79 51 198 86t234 35q392 0 459 -432q32 -196 63 -271t81 -113t130 -38h11q10 0 10 -8v-142q0 -10 -10 -10 h-11q-112 0 -195.5 48.5t-141.5 156.5q-245 -67 -380 -133.5t-198 -145.5t-63 -172q0 -254 278 -254zM803 -285q-53 0 -84 32t-31 91t30.5 91t84.5 32q55 0 85 -33.5t30 -89.5t-30 -89.5t-85 -33.5zM803 -655q-53 0 -84 32t-31 91q0 58 31 90t84 32q54 0 84.5 -33t30.5 -89 t-30 -89.5t-85 -33.5z"/>
<glyph glyph-name="uni0685.init" horiz-adv-x="1188" unicode="څ" d="M-10 0q-10 0 -10 10v142q0 8 10 8h878q-75 75 -129 375q-30 177 -87 248t-171 71q-142 0 -297 -82l-71 141q88 57 177.5 79t192.5 22q125 0 209 -45t133.5 -133.5t75.5 -253.5q30 -183 67.5 -282.5t86.5 -143.5v-156h-1065zM647 1188q-53 0 -84 32t-31 91t30.5 91 t84.5 32q55 0 85 -33.5t30 -89.5t-30 -89.5t-85 -33.5zM293 1188q-48 0 -81.5 29t-33.5 94t33.5 94t81.5 29q55 0 85 -33.5t30 -89.5t-30 -89.5t-85 -33.5zM469 1464q-46 0 -76 26.5t-30 86.5q0 59 30 86t76 27q43 0 74.5 -27.5t31.5 -85.5q0 -60 -31.5 -86.5t-74.5 -26.5z "/>
<glyph glyph-name="uni0685.medi" horiz-adv-x="1176" unicode="څ" d="M-10 0q-10 0 -10 10v142q0 8 10 8h878q-79 79 -129 375q-29 174 -87 246.5t-171 72.5q-142 0 -297 -82l-71 141q88 57 177.5 79t192.5 22q125 0 209 -45t133.5 -133.5t75.5 -253.5q47 -321 148 -422h137q10 0 10 -8v-142q0 -10 -10 -10h-1196zM647 1188q-53 0 -84 32 t-31 91t30.5 91t84.5 32q55 0 85 -33.5t30 -89.5t-30 -89.5t-85 -33.5zM293 1188q-48 0 -81.5 29t-33.5 94t33.5 94t81.5 29q55 0 85 -33.5t30 -89.5t-30 -89.5t-85 -33.5zM469 1464q-46 0 -76 26.5t-30 86.5q0 59 30 86t76 27q43 0 74.5 -27.5t31.5 -85.5 q0 -60 -31.5 -86.5t-74.5 -26.5z"/>
<glyph glyph-name="uni0685.fina" horiz-adv-x="1257" unicode="څ" d="M518 -657q-198 0 -312 103.5t-114 291.5q0 130 77 239t241 199t452 174q-22 70 -41 185q-27 162 -100.5 240.5t-198.5 78.5q-73 0 -176 -29.5t-182 -72.5l-72 141q79 51 198 86t234 35q392 0 459 -432q32 -196 63 -271t81 -113t130 -38h11q10 0 10 -8v-142q0 -10 -10 -10 h-11q-112 0 -195.5 48.5t-141.5 156.5q-245 -67 -380 -133.5t-198 -145.5t-63 -172q0 -131 76 -192.5t237 -61.5q103 0 301 33l22 -141q-145 -31 -230 -40t-167 -9zM647 1188q-53 0 -84 32t-31 91t30.5 91t84.5 32q55 0 85 -33.5t30 -89.5t-30 -89.5t-85 -33.5zM293 1188 q-48 0 -81.5 29t-33.5 94t33.5 94t81.5 29q55 0 85 -33.5t30 -89.5t-30 -89.5t-85 -33.5zM469 1464q-46 0 -76 26.5t-30 86.5q0 59 30 86t76 27q43 0 74.5 -27.5t31.5 -85.5q0 -60 -31.5 -86.5t-74.5 -26.5z"/>
<glyph arabic-form="isolated" glyph-name="uni0686" horiz-adv-x="1319" unicode="چ" d="M1077 25q-55 44 -94 85t-68 95q-343 -93 -489.5 -201t-146.5 -250q0 -254 278 -254l-39 -157q-198 0 -312 103.5t-114 291.5q0 129 75 237t236 197.5t457 177.5q-16 54 -39 185q-27 162 -100.5 240.5t-198.5 78.5q-73 0 -176 -29.5t-182 -72.5l-72 141q79 51 198 86 t234 35q392 0 459 -432q25 -160 73 -260.5t130 -155.5zM979 -338q-53 0 -84 32t-31 91q0 58 31 90t84 32q54 0 84.5 -33t30.5 -89t-30 -89.5t-85 -33.5zM625 -338q-48 0 -81.5 29t-33.5 94q0 64 33.5 93t81.5 29q54 0 84.5 -33t30.5 -89t-30 -89.5t-85 -33.5zM801 -588 q-46 0 -76 26.5t-30 86.5q0 58 30 85t76 27q43 0 74.5 -27t31.5 -85q0 -60 -31.5 -86.5t-74.5 -26.5z"/>
<glyph arabic-form="initial" glyph-name="uni0687.init" horiz-adv-x="1188" unicode="ڇ" d="M-10 0q-10 0 -10 10v142q0 8 10 8h878q-75 75 -129 375q-30 177 -87 248t-171 71q-142 0 -297 -82l-71 141q88 57 177.5 79t192.5 22q125 0 209 -45t133.5 -133.5t75.5 -253.5q30 -183 67.5 -282.5t86.5 -143.5v-156h-1065zM643 -420q-44 0 -73.5 26t-29.5 85t29.5 84.5 t73.5 25.5q49 0 76.5 -29.5t27.5 -80.5q0 -52 -28.5 -81.5t-75.5 -29.5zM325 -420q-47 0 -75.5 28.5t-28.5 82.5q0 58 30.5 84t73.5 26q42 0 72.5 -26t30.5 -84q0 -59 -30.5 -85t-72.5 -26zM643 -762q-44 0 -73.5 26t-29.5 85t29.5 84.5t73.5 25.5q49 0 76.5 -29.5 t27.5 -80.5q0 -52 -28.5 -81.5t-75.5 -29.5zM325 -762q-47 0 -75.5 28.5t-28.5 82.5q0 58 30.5 84t73.5 26q42 0 72.5 -26t30.5 -84q0 -59 -30.5 -85t-72.5 -26z"/>
<glyph arabic-form="medial" glyph-name="uni0687.medi" horiz-adv-x="1176" unicode="ڇ" d="M-10 0q-10 0 -10 10v142q0 8 10 8h878q-79 79 -129 375q-29 174 -87 246.5t-171 72.5q-142 0 -297 -82l-71 141q88 57 177.5 79t192.5 22q125 0 209 -45t133.5 -133.5t75.5 -253.5q47 -321 148 -422h137q10 0 10 -8v-142q0 -10 -10 -10h-1196zM643 -420q-44 0 -73.5 26 t-29.5 85t29.5 84.5t73.5 25.5q49 0 76.5 -29.5t27.5 -80.5q0 -52 -28.5 -81.5t-75.5 -29.5zM325 -420q-47 0 -75.5 28.5t-28.5 82.5q0 58 30.5 84t73.5 26q42 0 72.5 -26t30.5 -84q0 -59 -30.5 -85t-72.5 -26zM643 -762q-44 0 -73.5 26t-29.5 85t29.5 84.5t73.5 25.5 q49 0 76.5 -29.5t27.5 -80.5q0 -52 -28.5 -81.5t-75.5 -29.5zM325 -762q-47 0 -75.5 28.5t-28.5 82.5q0 58 30.5 84t73.5 26q42 0 72.5 -26t30.5 -84q0 -59 -30.5 -85t-72.5 -26z"/>
<glyph arabic-form="final" glyph-name="uni0687.fina" horiz-adv-x="1257" unicode="ڇ" d="M518 -657q-198 0 -312 103.5t-114 291.5q0 130 77 239t241 199t452 174q-22 70 -41 185q-27 162 -100.5 240.5t-198.5 78.5q-73 0 -176 -29.5t-182 -72.5l-72 141q79 51 198 86t234 35q392 0 459 -432q32 -196 63 -271t81 -113t130 -38h11q10 0 10 -8v-142q0 -10 -10 -10 h-11q-112 0 -195.5 48.5t-141.5 156.5q-245 -67 -380 -133.5t-198 -145.5t-63 -172q0 -254 278 -254zM1051 -309q-44 0 -73.5 26t-29.5 85t29.5 84.5t73.5 25.5q49 0 76.5 -29.5t27.5 -80.5q0 -52 -28.5 -81.5t-75.5 -29.5zM733 -309q-47 0 -75.5 28.5t-28.5 82.5 q0 58 30.5 84t73.5 26q42 0 72.5 -26t30.5 -84q0 -59 -30.5 -85t-72.5 -26zM1051 -651q-44 0 -73.5 26t-29.5 85t29.5 84.5t73.5 25.5q49 0 76.5 -29.5t27.5 -80.5q0 -52 -28.5 -81.5t-75.5 -29.5zM733 -651q-47 0 -75.5 28.5t-28.5 82.5q0 58 30.5 84t73.5 26 q42 0 72.5 -26t30.5 -84q0 -59 -30.5 -85t-72.5 -26z"/>
<glyph arabic-form="isolated" glyph-name="uni0688" horiz-adv-x="1042" unicode="ڈ" d="M92 160h682q-40 275 -153 468.5t-322 334.5l66 155q236 -123 384.5 -365t200.5 -597v-156h-858v160zM520 1386v51q0 54 -18 80.5t-61 26.5q-48 0 -84.5 -32.5t-65.5 -104.5v-21h229zM178 1386h31v373h82v-260q25 60 62.5 96.5t97.5 36.5q151 0 151 -178v-156h-424v88z "/>
<glyph glyph-name="uni0689.fina" horiz-adv-x="1165" unicode="ډ" d="M92 160h682q-40 275 -153 468.5t-322 334.5l66 155q236 -125 384.5 -367t198.5 -591h228q10 0 10 -8v-142q0 -10 -10 -10h-1084v160zM516 -224q49 0 81 29t32 83t-32 83.5t-81 29.5q-50 0 -81.5 -29.5t-31.5 -83.5q0 -112 113 -112zM516 -327q-102 0 -162.5 57.5 t-60.5 157.5q0 101 61 158t162 57q103 0 166 -58.5t63 -154.5q0 -99 -63 -158t-166 -59z"/>
<glyph glyph-name="uni068A.fina" horiz-adv-x="1165" unicode="ڊ" d="M92 160h682q-40 275 -153 468.5t-322 334.5l66 155q236 -125 384.5 -367t198.5 -591h228q10 0 10 -8v-142q0 -10 -10 -10h-1084v160zM530 -410q-53 0 -84 32t-31 91t30.5 91t84.5 32q55 0 85 -33.5t30 -89.5t-30 -89.5t-85 -33.5z"/>
<glyph glyph-name="uni068B.fina" horiz-adv-x="1165" unicode="ڋ" d="M92 160h682q-40 275 -153 468.5t-322 334.5l66 155q236 -125 384.5 -367t198.5 -591h228q10 0 10 -8v-142q0 -10 -10 -10h-1084v160zM520 1386v51q0 54 -18 80.5t-61 26.5q-48 0 -84.5 -32.5t-65.5 -104.5v-21h229zM178 1386h31v373h82v-260q25 60 62.5 96.5t97.5 36.5 q151 0 151 -178v-156h-424v88zM530 -410q-53 0 -84 32t-31 91t30.5 91t84.5 32q55 0 85 -33.5t30 -89.5t-30 -89.5t-85 -33.5z"/>
<glyph arabic-form="final" glyph-name="uni068C.fina" horiz-adv-x="1165" unicode="ڌ" d="M92 160h682q-40 275 -153 468.5t-322 334.5l66 155q236 -125 384.5 -367t198.5 -591h228q10 0 10 -8v-142q0 -10 -10 -10h-1084v160zM541 1311q-53 0 -84 32t-31 91t30.5 91t84.5 32q55 0 85 -33.5t30 -89.5t-30 -89.5t-85 -33.5zM187 1311q-48 0 -81.5 29t-33.5 94 t33.5 94t81.5 29q52 0 83 -31.5t31 -91.5q0 -59 -30.5 -91t-83.5 -32z"/>
<glyph arabic-form="final" glyph-name="uni068D.fina" horiz-adv-x="1165" unicode="ڍ" d="M92 160h682q-40 275 -153 468.5t-322 334.5l66 155q236 -125 384.5 -367t198.5 -591h228q10 0 10 -8v-142q0 -10 -10 -10h-1084v160zM709 -410q-53 0 -84 32t-31 91t30.5 91t84.5 32q55 0 85 -33.5t30 -89.5t-30 -89.5t-85 -33.5zM355 -410q-48 0 -81.5 29t-33.5 94 t33.5 94t81.5 29q52 0 83 -31.5t31 -91.5q0 -59 -30.5 -91t-83.5 -32z"/>
<glyph arabic-form="final" glyph-name="uni068E.fina" horiz-adv-x="1165" unicode="ڎ" d="M92 160h682q-40 275 -153 468.5t-322 334.5l66 155q236 -125 384.5 -367t198.5 -591h228q10 0 10 -8v-142q0 -10 -10 -10h-1084v160zM540 1311q-53 0 -84 32t-31 91t30.5 91t84.5 32q55 0 85 -33.5t30 -89.5t-30 -89.5t-85 -33.5zM186 1311q-48 0 -81.5 29t-33.5 94 t33.5 94t81.5 29q55 0 85 -33.5t30 -89.5t-30 -89.5t-85 -33.5zM362 1587q-46 0 -76 26.5t-30 86.5q0 59 30 86t76 27q43 0 74.5 -27.5t31.5 -85.5q0 -60 -31.5 -86.5t-74.5 -26.5z"/>
<glyph glyph-name="uni068F.fina" horiz-adv-x="1165" unicode="ڏ" d="M92 160h682q-40 275 -153 468.5t-322 334.5l66 155q236 -125 384.5 -367t198.5 -591h228q10 0 10 -8v-142q0 -10 -10 -10h-1084v160zM191 1803q53 0 84 -32t31 -91t-30.5 -91t-84.5 -32q-53 0 -84 32t-31 91t30.5 91t84.5 32zM545 1803q48 0 81.5 -29t33.5 -94t-33.5 -94 t-81.5 -29q-55 0 -85 33.5t-30 89.5t30 89.5t85 33.5zM369 1526q46 0 76 -26.5t30 -86.5q0 -58 -30 -85t-76 -27q-43 0 -74.5 27t-31.5 85q0 60 31.5 86.5t74.5 26.5z"/>
<glyph glyph-name="uni0690.fina" horiz-adv-x="1165" unicode="ڐ" d="M92 160h682q-40 275 -153 468.5t-322 334.5l66 155q236 -125 384.5 -367t198.5 -591h228q10 0 10 -8v-142q0 -10 -10 -10h-1084v160zM523 1561q-44 0 -73.5 25.5t-29.5 84.5t29.5 85t73.5 26q47 0 75.5 -29.5t28.5 -81.5t-28 -81t-76 -29zM205 1561q-49 0 -76.5 28 t-27.5 82q0 58 30.5 84.5t73.5 26.5q42 0 72.5 -26t30.5 -85q0 -53 -27.5 -81.5t-75.5 -28.5zM523 1219q-44 0 -73.5 25.5t-29.5 84.5t29.5 85t73.5 26q47 0 75.5 -29.5t28.5 -81.5t-28 -81t-76 -29zM205 1219q-49 0 -76.5 28t-27.5 82q0 58 30.5 84.5t73.5 26.5 q42 0 72.5 -26t30.5 -85q0 -53 -27.5 -81.5t-75.5 -28.5z"/>
<glyph arabic-form="isolated" glyph-name="uni0691" horiz-adv-x="666" unicode="ڑ" d="M127 -492q-98 0 -209 58l53 137q50 -22 82 -28.5t70 -6.5q92 0 144 75t52 198v1052h173v-1042q0 -207 -94 -325t-271 -118zM528 1292v51q0 54 -18 80.5t-61 26.5q-48 0 -84.5 -32.5t-65.5 -104.5v-21h229zM186 1292h31v373h82v-260q25 60 62.5 96.5t97.5 36.5 q151 0 151 -178v-156h-424v88z"/>
<glyph glyph-name="uni0692.fina" horiz-adv-x="735" unicode="ڒ" d="M492 0v-49q0 -207 -94 -325t-271 -118q-98 0 -209 58l53 137q50 -22 82 -28.5t70 -6.5q92 0 144 75t52 198v1052h173v-833h253q11 0 11 -8v-142q0 -10 -11 -10h-253zM729 1601l-225 -408h-127l-228 408h160l129 -264l133 264h158z"/>
<glyph glyph-name="uni0693.fina" horiz-adv-x="735" unicode="ړ" d="M492 0v-49q0 -207 -94 -325t-271 -118q-98 0 -209 58l53 137q50 -22 82 -28.5t70 -6.5q92 0 144 75t52 198v1052h173v-833h253q11 0 11 -8v-142q0 -10 -11 -10h-253zM442 -638q49 0 81 29t32 83t-32 83.5t-81 29.5q-50 0 -81.5 -29.5t-31.5 -83.5q0 -112 113 -112z M442 -741q-102 0 -162.5 57.5t-60.5 157.5q0 101 61 158t162 57q103 0 166 -58.5t63 -154.5q0 -99 -63 -158t-166 -59z"/>
<glyph glyph-name="uni0694.fina" horiz-adv-x="735" unicode="ڔ" d="M492 0v-49q0 -207 -94 -325t-271 -118q-98 0 -209 58l53 137q50 -22 82 -28.5t70 -6.5q92 0 144 75t52 198v1052h173v-833h253q11 0 11 -8v-142q0 -10 -11 -10h-253zM313 -845q-53 0 -84 32t-31 91t30.5 91t84.5 32q55 0 85 -33.5t30 -89.5t-30 -89.5t-85 -33.5z"/>
<glyph glyph-name="uni0695.fina" horiz-adv-x="735" unicode="ڕ" d="M492 0v-49q0 -207 -94 -325t-271 -118q-98 0 -209 58l53 137q50 -22 82 -28.5t70 -6.5q92 0 144 75t52 198v1052h173v-833h253q11 0 11 -8v-142q0 -10 -11 -10h-253zM580 -652l-225 -408h-127l-228 408h160l129 -264l133 264h158z"/>
<glyph glyph-name="uni0696.fina" horiz-adv-x="735" unicode="ږ" d="M492 0v-49q0 -207 -94 -325t-271 -118q-98 0 -209 58l53 137q50 -22 82 -28.5t70 -6.5q92 0 144 75t52 198v1052h173v-833h253q11 0 11 -8v-142q0 -10 -11 -10h-253zM313 -845q-53 0 -84 32t-31 91t30.5 91t84.5 32q55 0 85 -33.5t30 -89.5t-30 -89.5t-85 -33.5zM156 0 q-53 0 -84 32t-31 91t30.5 91t84.5 32q55 0 85 -33.5t30 -89.5t-30 -89.5t-85 -33.5z"/>
<glyph glyph-name="uni0697.fina" horiz-adv-x="735" unicode="ڗ" d="M492 0v-49q0 -207 -94 -325t-271 -118q-98 0 -209 58l53 137q50 -22 82 -28.5t70 -6.5q92 0 144 75t52 198v1052h173v-833h253q11 0 11 -8v-142q0 -10 -11 -10h-253zM614 1188q-53 0 -84 32t-31 91t30.5 91t84.5 32q55 0 85 -33.5t30 -89.5t-30 -89.5t-85 -33.5z M260 1188q-48 0 -81.5 29t-33.5 94t33.5 94t81.5 29q52 0 83 -31.5t31 -91.5q0 -59 -30.5 -91t-83.5 -32z"/>
<glyph arabic-form="isolated" glyph-name="uni0698" horiz-adv-x="666" unicode="ژ" d="M127 -492q-98 0 -209 58l53 137q50 -22 82 -28.5t70 -6.5q92 0 144 75t52 198v1052h173v-1042q0 -207 -94 -325t-271 -118zM581 1188q-53 0 -84 32t-31 91t30.5 91t84.5 32q55 0 85 -33.5t30 -89.5t-30 -89.5t-85 -33.5zM227 1188q-48 0 -81.5 29t-33.5 94t33.5 94 t81.5 29q55 0 85 -33.5t30 -89.5t-30 -89.5t-85 -33.5zM403 1464q-46 0 -76 26.5t-30 86.5q0 59 30 86t76 27q43 0 74.5 -27.5t31.5 -85.5q0 -60 -31.5 -86.5t-74.5 -26.5z"/>
<glyph glyph-name="uni0699.fina" horiz-adv-x="735" unicode="ڙ" d="M492 0v-49q0 -207 -94 -325t-271 -118q-98 0 -209 58l53 137q50 -22 82 -28.5t70 -6.5q92 0 144 75t52 198v1052h173v-833h253q11 0 11 -8v-142q0 -10 -11 -10h-253zM598 1537q-44 0 -73.5 25.5t-29.5 84.5t29.5 85t73.5 26q47 0 75.5 -29.5t28.5 -81.5t-28 -81t-76 -29z M280 1537q-49 0 -76.5 28t-27.5 82q0 58 30.5 84.5t73.5 26.5q42 0 72.5 -26t30.5 -85q0 -53 -27.5 -81.5t-75.5 -28.5zM598 1195q-44 0 -73.5 25.5t-29.5 84.5t29.5 85t73.5 26q47 0 75.5 -29.5t28.5 -81.5t-28 -81t-76 -29zM280 1195q-49 0 -76.5 28t-27.5 82 q0 58 30.5 84.5t73.5 26.5q42 0 72.5 -26t30.5 -85q0 -53 -27.5 -81.5t-75.5 -28.5z"/>
<glyph glyph-name="uni069A.init" horiz-adv-x="1798" unicode="ښ" d="M1325 0q-92 0 -169.5 30.5t-160.5 112.5q-45 -63 -120 -103t-179 -40h-706q-10 0 -10 10v142q0 8 10 8h293v674h174v-674h221q99 0 154 65.5t55 171.5v437h174v-492l-2 -23q51 -88 111.5 -123.5t154.5 -35.5h125v833h174v-993h-299zM977 1188q-53 0 -84 32t-31 91 t30.5 91t84.5 32q55 0 85 -33.5t30 -89.5t-30 -89.5t-85 -33.5zM969 -410q-53 0 -84 32t-31 91t30.5 91t84.5 32q55 0 85 -33.5t30 -89.5t-30 -89.5t-85 -33.5z"/>
<glyph glyph-name="uni069A.medi" horiz-adv-x="1888" unicode="ښ" d="M1325 0q-92 0 -169.5 30.5t-160.5 112.5q-45 -63 -120 -103t-179 -40h-706q-10 0 -10 10v142q0 8 10 8h293v674h174v-674h221q99 0 154 65.5t55 171.5v437h174v-492l-2 -23q51 -88 111.5 -123.5t154.5 -35.5h125v833h174v-833h274q11 0 11 -8v-142q0 -10 -11 -10h-573z M987 1188q-53 0 -84 32t-31 91t30.5 91t84.5 32q55 0 85 -33.5t30 -89.5t-30 -89.5t-85 -33.5zM979 -410q-53 0 -84 32t-31 91t30.5 91t84.5 32q55 0 85 -33.5t30 -89.5t-30 -89.5t-85 -33.5z"/>
<glyph glyph-name="uni069A.fina" horiz-adv-x="2634" unicode="ښ" d="M2071 0q-92 0 -169.5 30.5t-160.5 110.5q-47 -63 -122 -102t-177 -39h-240q0 -242 -123 -367t-387 -125h-147q-190 0 -301 140t-111 385q0 126 22 255.5t62 227.5h170q-70 -177 -70 -483q0 -175 70 -270t197 -95h100q178 0 261 81t83 245v840h174v-674h221q99 0 154 65.5 t55 171.5v437h174v-492l-2 -23q51 -89 113 -124t154 -35h124v833h175v-833h274q10 0 10 -8v-142q0 -10 -10 -10h-573zM1708 -410q-53 0 -84 32t-31 91t30.5 91t84.5 32q55 0 85 -33.5t30 -89.5t-30 -89.5t-85 -33.5zM1716 1188q-53 0 -84 32t-31 91t30.5 91t84.5 32 q55 0 85 -33.5t30 -89.5t-30 -89.5t-85 -33.5z"/>
<glyph glyph-name="uni069B.init" horiz-adv-x="1798" unicode="ڛ" d="M1325 0q-92 0 -169.5 30.5t-160.5 112.5q-45 -63 -120 -103t-179 -40h-706q-10 0 -10 10v142q0 8 10 8h293v674h174v-674h221q99 0 154 65.5t55 171.5v437h174v-492l-2 -23q51 -88 111.5 -123.5t154.5 -35.5h125v833h174v-993h-299zM1147 -438q-53 0 -84 32t-31 91 q0 58 31 90t84 32q54 0 84.5 -33t30.5 -89t-30 -89.5t-85 -33.5zM793 -438q-48 0 -81.5 29t-33.5 94q0 64 33.5 93t81.5 29q54 0 84.5 -33t30.5 -89t-30 -89.5t-85 -33.5zM969 -688q-46 0 -76 26.5t-30 86.5q0 58 30 85t76 27q43 0 74.5 -27t31.5 -85q0 -60 -31.5 -86.5 t-74.5 -26.5z"/>
<glyph glyph-name="uni069B.medi" horiz-adv-x="1888" unicode="ڛ" d="M1325 0q-92 0 -169.5 30.5t-160.5 112.5q-45 -63 -120 -103t-179 -40h-706q-10 0 -10 10v142q0 8 10 8h293v674h174v-674h221q99 0 154 65.5t55 171.5v437h174v-492l-2 -23q51 -88 111.5 -123.5t154.5 -35.5h125v833h174v-833h274q11 0 11 -8v-142q0 -10 -11 -10h-573z M1147 -438q-53 0 -84 32t-31 91q0 58 31 90t84 32q54 0 84.5 -33t30.5 -89t-30 -89.5t-85 -33.5zM793 -438q-48 0 -81.5 29t-33.5 94q0 64 33.5 93t81.5 29q54 0 84.5 -33t30.5 -89t-30 -89.5t-85 -33.5zM969 -688q-46 0 -76 26.5t-30 86.5q0 58 30 85t76 27q43 0 74.5 -27 t31.5 -85q0 -60 -31.5 -86.5t-74.5 -26.5z"/>
<glyph glyph-name="uni069B.fina" horiz-adv-x="2634" unicode="ڛ" d="M2071 0q-92 0 -169.5 30.5t-160.5 110.5q-47 -63 -122 -102t-177 -39h-240q0 -242 -123 -367t-387 -125h-147q-190 0 -301 140t-111 385q0 126 22 255.5t62 227.5h170q-70 -177 -70 -483q0 -175 70 -270t197 -95h100q178 0 261 81t83 245v840h174v-674h221q99 0 154 65.5 t55 171.5v437h174v-492l-2 -23q51 -89 113 -124t154 -35h124v833h175v-833h274q10 0 10 -8v-142q0 -10 -10 -10h-573zM1884 -438q-53 0 -84 32t-31 91q0 58 31 90t84 32q54 0 84.5 -33t30.5 -89t-30 -89.5t-85 -33.5zM1530 -438q-48 0 -81.5 29t-33.5 94q0 64 33.5 93 t81.5 29q54 0 84.5 -33t30.5 -89t-30 -89.5t-85 -33.5zM1706 -688q-46 0 -76 26.5t-30 86.5q0 58 30 85t76 27q43 0 74.5 -27t31.5 -85q0 -60 -31.5 -86.5t-74.5 -26.5z"/>
<glyph glyph-name="uni069C.init" horiz-adv-x="1798" unicode="ڜ" d="M1325 0q-92 0 -169.5 30.5t-160.5 112.5q-45 -63 -120 -103t-179 -40h-706q-10 0 -10 10v142q0 8 10 8h293v674h174v-674h221q99 0 154 65.5t55 171.5v437h174v-492l-2 -23q51 -88 111.5 -123.5t154.5 -35.5h125v833h174v-993h-299zM1147 -438q-53 0 -84 32t-31 91 q0 58 31 90t84 32q54 0 84.5 -33t30.5 -89t-30 -89.5t-85 -33.5zM793 -438q-48 0 -81.5 29t-33.5 94q0 64 33.5 93t81.5 29q54 0 84.5 -33t30.5 -89t-30 -89.5t-85 -33.5zM969 -688q-46 0 -76 26.5t-30 86.5q0 58 30 85t76 27q43 0 74.5 -27t31.5 -85q0 -60 -31.5 -86.5 t-74.5 -26.5zM1136 1188q-53 0 -84 32t-31 91t30.5 91t84.5 32q55 0 85 -33.5t30 -89.5t-30 -89.5t-85 -33.5zM782 1188q-48 0 -81.5 29t-33.5 94t33.5 94t81.5 29q55 0 85 -33.5t30 -89.5t-30 -89.5t-85 -33.5zM958 1464q-46 0 -76 26.5t-30 86.5q0 59 30 86t76 27 q43 0 74.5 -27.5t31.5 -85.5q0 -60 -31.5 -86.5t-74.5 -26.5z"/>
<glyph glyph-name="uni069C.medi" horiz-adv-x="1888" unicode="ڜ" d="M1325 0q-92 0 -169.5 30.5t-160.5 112.5q-45 -63 -120 -103t-179 -40h-706q-10 0 -10 10v142q0 8 10 8h293v674h174v-674h221q99 0 154 65.5t55 171.5v437h174v-492l-2 -23q51 -88 111.5 -123.5t154.5 -35.5h125v833h174v-833h274q11 0 11 -8v-142q0 -10 -11 -10h-573z M1147 -438q-53 0 -84 32t-31 91q0 58 31 90t84 32q54 0 84.5 -33t30.5 -89t-30 -89.5t-85 -33.5zM793 -438q-48 0 -81.5 29t-33.5 94q0 64 33.5 93t81.5 29q54 0 84.5 -33t30.5 -89t-30 -89.5t-85 -33.5zM969 -688q-46 0 -76 26.5t-30 86.5q0 58 30 85t76 27q43 0 74.5 -27 t31.5 -85q0 -60 -31.5 -86.5t-74.5 -26.5zM1136 1188q-53 0 -84 32t-31 91t30.5 91t84.5 32q55 0 85 -33.5t30 -89.5t-30 -89.5t-85 -33.5zM782 1188q-48 0 -81.5 29t-33.5 94t33.5 94t81.5 29q55 0 85 -33.5t30 -89.5t-30 -89.5t-85 -33.5zM958 1464q-46 0 -76 26.5 t-30 86.5q0 59 30 86t76 27q43 0 74.5 -27.5t31.5 -85.5q0 -60 -31.5 -86.5t-74.5 -26.5z"/>
<glyph glyph-name="uni069C.fina" horiz-adv-x="2634" unicode="ڜ" d="M2071 0q-92 0 -169.5 30.5t-160.5 110.5q-47 -63 -122 -102t-177 -39h-240q0 -242 -123 -367t-387 -125h-147q-190 0 -301 140t-111 385q0 126 22 255.5t62 227.5h170q-70 -177 -70 -483q0 -175 70 -270t197 -95h100q178 0 261 81t83 245v840h174v-674h221q99 0 154 65.5 t55 171.5v437h174v-492l-2 -23q51 -89 113 -124t154 -35h124v833h175v-833h274q10 0 10 -8v-142q0 -10 -10 -10h-573zM1884 -438q-53 0 -84 32t-31 91q0 58 31 90t84 32q54 0 84.5 -33t30.5 -89t-30 -89.5t-85 -33.5zM1530 -438q-48 0 -81.5 29t-33.5 94q0 64 33.5 93 t81.5 29q54 0 84.5 -33t30.5 -89t-30 -89.5t-85 -33.5zM1706 -688q-46 0 -76 26.5t-30 86.5q0 58 30 85t76 27q43 0 74.5 -27t31.5 -85q0 -60 -31.5 -86.5t-74.5 -26.5zM1904 1188q-53 0 -84 32t-31 91t30.5 91t84.5 32q55 0 85 -33.5t30 -89.5t-30 -89.5t-85 -33.5z M1550 1188q-48 0 -81.5 29t-33.5 94t33.5 94t81.5 29q55 0 85 -33.5t30 -89.5t-30 -89.5t-85 -33.5zM1726 1464q-46 0 -76 26.5t-30 86.5q0 59 30 86t76 27q43 0 74.5 -27.5t31.5 -85.5q0 -60 -31.5 -86.5t-74.5 -26.5z"/>
<glyph glyph-name="uni069D.init" horiz-adv-x="1604" unicode="ڝ" d="M1276 160v325q0 189 -82.5 278t-249.5 89q-315 0 -530 -524v-168h862zM-10 0q-10 0 -10 10v142q0 8 10 8h250v772h174v-379q96 229 241 345t326 116q232 0 350.5 -126t118.5 -394v-494h-1460zM1012 -410q-53 0 -84 32t-31 91t30.5 91t84.5 32q55 0 85 -33.5t30 -89.5 t-30 -89.5t-85 -33.5zM658 -410q-48 0 -81.5 29t-33.5 94t33.5 94t81.5 29q52 0 83 -31.5t31 -91.5q0 -59 -30.5 -91t-83.5 -32z"/>
<glyph glyph-name="uni069D.medi" horiz-adv-x="1710" unicode="ڝ" d="M1276 160v325q0 189 -82.5 278t-249.5 89q-315 0 -530 -524v-168h862zM-10 0q-10 0 -10 10v142q0 8 10 8h250v772h174v-379q96 229 241 345t326 116q232 0 350.5 -126t118.5 -394v-334h270q11 0 11 -8v-142q0 -10 -11 -10h-1730zM1012 -410q-53 0 -84 32t-31 91t30.5 91 t84.5 32q55 0 85 -33.5t30 -89.5t-30 -89.5t-85 -33.5zM658 -410q-48 0 -81.5 29t-33.5 94t33.5 94t81.5 29q52 0 83 -31.5t31 -91.5q0 -59 -30.5 -91t-83.5 -32z"/>
<glyph glyph-name="uni069D.fina" horiz-adv-x="2503" unicode="ڝ" d="M2064 160v325q0 189 -82 278t-249 89q-317 0 -531 -520v-172h862zM1202 0q0 -248 -123 -370t-387 -122h-147q-190 0 -301 140t-111 385q0 126 22 255.5t62 227.5h170q-70 -177 -70 -483q0 -175 70 -270t197 -95h100q178 0 261 81t83 245v999h174v-440q96 229 241 345 t326 116q232 0 350.5 -126t118.5 -394v-334h275q10 0 10 -8v-142q0 -10 -10 -10h-1311zM1849 -410q-53 0 -84 32t-31 91t30.5 91t84.5 32q55 0 85 -33.5t30 -89.5t-30 -89.5t-85 -33.5zM1495 -410q-48 0 -81.5 29t-33.5 94t33.5 94t81.5 29q52 0 83 -31.5t31 -91.5 q0 -59 -30.5 -91t-83.5 -32z"/>
<glyph glyph-name="uni069E.init" horiz-adv-x="1604" unicode="ڞ" d="M1276 160v325q0 189 -82.5 278t-249.5 89q-315 0 -530 -524v-168h862zM-10 0q-10 0 -10 10v142q0 8 10 8h250v772h174v-379q96 229 241 345t326 116q232 0 350.5 -126t118.5 -394v-494h-1460zM1202 1188q-53 0 -84 32t-31 91t30.5 91t84.5 32q55 0 85 -33.5t30 -89.5 t-30 -89.5t-85 -33.5zM848 1188q-48 0 -81.5 29t-33.5 94t33.5 94t81.5 29q55 0 85 -33.5t30 -89.5t-30 -89.5t-85 -33.5zM1024 1464q-46 0 -76 26.5t-30 86.5q0 59 30 86t76 27q43 0 74.5 -27.5t31.5 -85.5q0 -60 -31.5 -86.5t-74.5 -26.5z"/>
<glyph glyph-name="uni069E.medi" horiz-adv-x="1710" unicode="ڞ" d="M1276 160v325q0 189 -82.5 278t-249.5 89q-315 0 -530 -524v-168h862zM-10 0q-10 0 -10 10v142q0 8 10 8h250v772h174v-379q96 229 241 345t326 116q232 0 350.5 -126t118.5 -394v-334h270q11 0 11 -8v-142q0 -10 -11 -10h-1730zM1202 1188q-53 0 -84 32t-31 91t30.5 91 t84.5 32q55 0 85 -33.5t30 -89.5t-30 -89.5t-85 -33.5zM848 1188q-48 0 -81.5 29t-33.5 94t33.5 94t81.5 29q55 0 85 -33.5t30 -89.5t-30 -89.5t-85 -33.5zM1024 1464q-46 0 -76 26.5t-30 86.5q0 59 30 86t76 27q43 0 74.5 -27.5t31.5 -85.5q0 -60 -31.5 -86.5t-74.5 -26.5z "/>
<glyph glyph-name="uni069E.fina" horiz-adv-x="2503" unicode="ڞ" d="M2064 160v325q0 189 -82 278t-249 89q-317 0 -531 -520v-172h862zM1202 0q0 -248 -123 -370t-387 -122h-147q-190 0 -301 140t-111 385q0 126 22 255.5t62 227.5h170q-70 -177 -70 -483q0 -175 70 -270t197 -95h100q178 0 261 81t83 245v999h174v-440q96 229 241 345 t326 116q232 0 350.5 -126t118.5 -394v-334h275q10 0 10 -8v-142q0 -10 -10 -10h-1311zM1904 1188q-53 0 -84 32t-31 91t30.5 91t84.5 32q55 0 85 -33.5t30 -89.5t-30 -89.5t-85 -33.5zM1550 1188q-48 0 -81.5 29t-33.5 94t33.5 94t81.5 29q55 0 85 -33.5t30 -89.5 t-30 -89.5t-85 -33.5zM1726 1464q-46 0 -76 26.5t-30 86.5q0 59 30 86t76 27q43 0 74.5 -27.5t31.5 -85.5q0 -60 -31.5 -86.5t-74.5 -26.5z"/>
<glyph glyph-name="uni069F.init" horiz-adv-x="1583" unicode="ڟ" d="M1276 160v325q0 189 -82.5 278t-249.5 89q-315 0 -530 -524v-168h862zM-10 0q-10 0 -10 10v142q0 8 10 8h250v1396h174v-1003q96 229 241 345t326 116q232 0 350.5 -126t118.5 -394v-494h-1460zM1148 1188q-53 0 -84 32t-31 91t30.5 91t84.5 32q55 0 85 -33.5t30 -89.5 t-30 -89.5t-85 -33.5zM794 1188q-48 0 -81.5 29t-33.5 94t33.5 94t81.5 29q55 0 85 -33.5t30 -89.5t-30 -89.5t-85 -33.5zM970 1464q-46 0 -76 26.5t-30 86.5q0 59 30 86t76 27q43 0 74.5 -27.5t31.5 -85.5q0 -60 -31.5 -86.5t-74.5 -26.5z"/>
<glyph glyph-name="uni069F.medi" horiz-adv-x="1710" unicode="ڟ" d="M1276 160v325q0 189 -82.5 278t-249.5 89q-315 0 -530 -524v-168h862zM-10 0q-10 0 -10 10v142q0 8 10 8h250v1396h174v-1003q96 229 241 345t326 116q232 0 350.5 -126t118.5 -394v-334h270q11 0 11 -8v-142q0 -10 -11 -10h-1730zM1148 1188q-53 0 -84 32t-31 91 t30.5 91t84.5 32q55 0 85 -33.5t30 -89.5t-30 -89.5t-85 -33.5zM794 1188q-48 0 -81.5 29t-33.5 94t33.5 94t81.5 29q55 0 85 -33.5t30 -89.5t-30 -89.5t-85 -33.5zM970 1464q-46 0 -76 26.5t-30 86.5q0 59 30 86t76 27q43 0 74.5 -27.5t31.5 -85.5q0 -60 -31.5 -86.5 t-74.5 -26.5z"/>
<glyph glyph-name="uni069F.fina" horiz-adv-x="1731" unicode="ڟ" d="M1296 160v325q0 189 -82 278t-249 89q-155 0 -289 -130.5t-242 -393.5v-168h862zM61 160h199v1396h174v-1003q96 229 241 345t326 116q232 0 350.5 -126t118.5 -394v-334h271q10 0 10 -8v-142q0 -10 -10 -10h-1680v160zM1202 1188q-53 0 -84 32t-31 91t30.5 91t84.5 32 q55 0 85 -33.5t30 -89.5t-30 -89.5t-85 -33.5zM848 1188q-48 0 -81.5 29t-33.5 94t33.5 94t81.5 29q55 0 85 -33.5t30 -89.5t-30 -89.5t-85 -33.5zM1024 1464q-46 0 -76 26.5t-30 86.5q0 59 30 86t76 27q43 0 74.5 -27.5t31.5 -85.5q0 -60 -31.5 -86.5t-74.5 -26.5z"/>
<glyph glyph-name="uni06A0.init" horiz-adv-x="1055" unicode="ڠ" d="M-10 0q-10 0 -10 10v142q0 8 10 8h315q-65 55 -105 151t-40 213q0 231 132.5 360.5t354.5 129.5q88 0 162.5 -17.5t122.5 -42.5l-55 -153q-127 53 -240 53q-291 0 -291 -338q0 -159 69.5 -257.5t182.5 -98.5h365v-160h-973zM823 1188q-53 0 -84 32t-31 91t30.5 91 t84.5 32q55 0 85 -33.5t30 -89.5t-30 -89.5t-85 -33.5zM469 1188q-48 0 -81.5 29t-33.5 94t33.5 94t81.5 29q55 0 85 -33.5t30 -89.5t-30 -89.5t-85 -33.5zM645 1464q-46 0 -76 26.5t-30 86.5q0 59 30 86t76 27q43 0 74.5 -27.5t31.5 -85.5q0 -60 -31.5 -86.5t-74.5 -26.5z "/>
<glyph glyph-name="uni06A0.medi" horiz-adv-x="1217" unicode="ڠ" d="M610 293q158 107 235 235t87 295q-143 76 -295 76q-174 0 -348 -119q31 -140 116 -268t205 -219zM987 0q-86 0 -185 25.5t-194 76.5q-180 -102 -381 -102h-237q-10 0 -10 10v142q0 8 10 8h235q147 0 244 41q-79 57 -161.5 164.5t-140 232t-75.5 236.5q112 105 252.5 165 t286.5 60q129 0 260 -41t229 -109q0 -212 -98 -400t-270 -306q114 -43 227 -43h248q10 0 10 -8v-142q0 -10 -10 -10h-240zM782 1188q-53 0 -84 32t-31 91t30.5 91t84.5 32q55 0 85 -33.5t30 -89.5t-30 -89.5t-85 -33.5zM428 1188q-48 0 -81.5 29t-33.5 94t33.5 94t81.5 29 q55 0 85 -33.5t30 -89.5t-30 -89.5t-85 -33.5zM604 1464q-46 0 -76 26.5t-30 86.5q0 59 30 86t76 27q43 0 74.5 -27.5t31.5 -85.5q0 -60 -31.5 -86.5t-74.5 -26.5z"/>
<glyph glyph-name="uni06A0.fina" horiz-adv-x="1257" unicode="ڠ" d="M330 780q25 -118 110 -250t205 -231q157 108 236.5 235t91.5 289q-143 76 -295 76q-174 0 -348 -119zM193 -262q0 128 74 241.5t237 225.5q-145 139 -247 310.5t-124 318.5q112 105 252.5 165t286.5 60q129 0 260 -41t229 -109q-4 -197 -99 -379.5t-274 -322.5 q111 -47 232 -47h248q10 0 10 -8v-142q0 -10 -10 -10h-240q-78 0 -188 31t-197 78q-146 -93 -205 -177.5t-59 -177.5q0 -131 76 -192.5t237 -61.5q81 0 155 10.5t146 22.5l23 -141q-148 -31 -228 -40t-170 -9q-198 0 -311.5 104t-113.5 291zM823 1188q-53 0 -84 32t-31 91 t30.5 91t84.5 32q55 0 85 -33.5t30 -89.5t-30 -89.5t-85 -33.5zM469 1188q-48 0 -81.5 29t-33.5 94t33.5 94t81.5 29q55 0 85 -33.5t30 -89.5t-30 -89.5t-85 -33.5zM645 1464q-46 0 -76 26.5t-30 86.5q0 59 30 86t76 27q43 0 74.5 -27.5t31.5 -85.5q0 -60 -31.5 -86.5 t-74.5 -26.5z"/>
<glyph glyph-name="uni06A1.fina" horiz-adv-x="2114" unicode="ڡ" d="M516 0q-177 0 -280 106.5t-103 290.5q0 68 14.5 157t36.5 151h164q-31 -148 -31 -293q0 -112 53 -182t140 -70h666q-48 52 -77.5 137t-29.5 172q0 240 150.5 382t410.5 142h268v-833h226q10 0 10 -8v-142q0 -10 -10 -10h-1608zM1724 160v674h-88q-182 0 -283.5 -95 t-101.5 -268q0 -311 281 -311h192z"/>
<glyph glyph-name="uni06A2.init" horiz-adv-x="1198" unicode="ڢ" d="M-10 0q-10 0 -10 10v142q0 8 10 8h311q-52 59 -79 143t-27 166q0 240 150.5 382t410.5 142h268v-993h-1034zM850 160v674h-88q-182 0 -283.5 -95t-101.5 -268q0 -311 280 -311h193zM657 -410q-53 0 -84 32t-31 91t30.5 91t84.5 32q55 0 85 -33.5t30 -89.5t-30 -89.5 t-85 -33.5z"/>
<glyph glyph-name="uni06A2.medi" horiz-adv-x="1231" unicode="ڢ" d="M-10 0q-10 0 -10 10v142q0 8 10 8h311q-52 59 -79 143t-27 166q0 244 151.5 384t409.5 140h268v-833h217q6 0 9 -5l1 -5v-142q0 -8 -10 -8h-1251zM850 160v674h-88q-183 0 -284 -96.5t-101 -268.5q0 -309 280 -309h193zM657 -410q-53 0 -84 32t-31 91t30.5 91t84.5 32 q55 0 85 -33.5t30 -89.5t-30 -89.5t-85 -33.5z"/>
<glyph glyph-name="uni06A2.fina" horiz-adv-x="2114" unicode="ڢ" d="M516 0q-177 0 -280 106.5t-103 290.5q0 68 14.5 157t36.5 151h164q-31 -148 -31 -293q0 -112 53 -182t140 -70h666q-48 52 -77.5 137t-29.5 172q0 240 150.5 382t410.5 142h268v-833h226q10 0 10 -8v-142q0 -10 -10 -10h-1608zM1724 160v674h-88q-182 0 -283.5 -95 t-101.5 -268q0 -311 281 -311h192zM1536 -410q-53 0 -84 32t-31 91t30.5 91t84.5 32q55 0 85 -33.5t30 -89.5t-30 -89.5t-85 -33.5z"/>
<glyph glyph-name="uni06A3.init" horiz-adv-x="1198" unicode="ڣ" d="M-10 0q-10 0 -10 10v142q0 8 10 8h311q-52 59 -79 143t-27 166q0 240 150.5 382t410.5 142h268v-993h-1034zM850 160v674h-88q-182 0 -283.5 -95t-101.5 -268q0 -311 280 -311h193zM635 1188q-53 0 -84 32t-31 91t30.5 91t84.5 32q55 0 85 -33.5t30 -89.5t-30 -89.5 t-85 -33.5zM657 -410q-53 0 -84 32t-31 91t30.5 91t84.5 32q55 0 85 -33.5t30 -89.5t-30 -89.5t-85 -33.5z"/>
<glyph glyph-name="uni06A3.medi" horiz-adv-x="1231" unicode="ڣ" d="M-10 0q-10 0 -10 10v142q0 8 10 8h311q-52 59 -79 143t-27 166q0 244 151.5 384t409.5 140h268v-833h217q6 0 9 -5l1 -5v-142q0 -8 -10 -8h-1251zM850 160v674h-88q-183 0 -284 -96.5t-101 -268.5q0 -309 280 -309h193zM653 1188q-53 0 -84 32t-31 91t30.5 91t84.5 32 q55 0 85 -33.5t30 -89.5t-30 -89.5t-85 -33.5zM657 -410q-53 0 -84 32t-31 91t30.5 91t84.5 32q55 0 85 -33.5t30 -89.5t-30 -89.5t-85 -33.5z"/>
<glyph glyph-name="uni06A3.fina" horiz-adv-x="2114" unicode="ڣ" d="M516 0q-177 0 -280 106.5t-103 290.5q0 68 14.5 157t36.5 151h164q-31 -148 -31 -293q0 -112 53 -182t140 -70h666q-48 52 -77.5 137t-29.5 172q0 240 150.5 382t410.5 142h268v-833h226q10 0 10 -8v-142q0 -10 -10 -10h-1608zM1724 160v674h-88q-182 0 -283.5 -95 t-101.5 -268q0 -311 281 -311h192zM1511 1188q-53 0 -84 32t-31 91t30.5 91t84.5 32q55 0 85 -33.5t30 -89.5t-30 -89.5t-85 -33.5zM1536 -410q-53 0 -84 32t-31 91t30.5 91t84.5 32q55 0 85 -33.5t30 -89.5t-30 -89.5t-85 -33.5z"/>
<glyph arabic-form="initial" glyph-name="uni06A4.init" horiz-adv-x="1198" unicode="ڤ" d="M-10 0q-10 0 -10 10v142q0 8 10 8h311q-52 59 -79 143t-27 166q0 240 150.5 382t410.5 142h268v-993h-1034zM850 160v674h-88q-182 0 -283.5 -95t-101.5 -268q0 -311 280 -311h193zM833 1188q-53 0 -84 32t-31 91t30.5 91t84.5 32q55 0 85 -33.5t30 -89.5t-30 -89.5 t-85 -33.5zM479 1188q-48 0 -81.5 29t-33.5 94t33.5 94t81.5 29q55 0 85 -33.5t30 -89.5t-30 -89.5t-85 -33.5zM655 1464q-46 0 -76 26.5t-30 86.5q0 59 30 86t76 27q43 0 74.5 -27.5t31.5 -85.5q0 -60 -31.5 -86.5t-74.5 -26.5z"/>
<glyph arabic-form="medial" glyph-name="uni06A4.medi" horiz-adv-x="1231" unicode="ڤ" d="M-10 0q-10 0 -10 10v142q0 8 10 8h311q-52 59 -79 143t-27 166q0 244 151.5 384t409.5 140h268v-833h217q6 0 9 -5l1 -5v-142q0 -8 -10 -8h-1251zM850 160v674h-88q-183 0 -284 -96.5t-101 -268.5q0 -309 280 -309h193zM833 1188q-53 0 -84 32t-31 91t30.5 91t84.5 32 q55 0 85 -33.5t30 -89.5t-30 -89.5t-85 -33.5zM479 1188q-48 0 -81.5 29t-33.5 94t33.5 94t81.5 29q55 0 85 -33.5t30 -89.5t-30 -89.5t-85 -33.5zM655 1464q-46 0 -76 26.5t-30 86.5q0 59 30 86t76 27q43 0 74.5 -27.5t31.5 -85.5q0 -60 -31.5 -86.5t-74.5 -26.5z"/>
<glyph arabic-form="final" glyph-name="uni06A4.fina" horiz-adv-x="2114" unicode="ڤ" d="M516 0q-177 0 -280 106.5t-103 290.5q0 68 14.5 157t36.5 151h164q-31 -148 -31 -293q0 -112 53 -182t140 -70h666q-48 52 -77.5 137t-29.5 172q0 240 150.5 382t410.5 142h268v-833h226q10 0 10 -8v-142q0 -10 -10 -10h-1608zM1724 160v674h-88q-182 0 -283.5 -95 t-101.5 -268q0 -311 281 -311h192zM1702 1188q-53 0 -84 32t-31 91t30.5 91t84.5 32q55 0 85 -33.5t30 -89.5t-30 -89.5t-85 -33.5zM1348 1188q-48 0 -81.5 29t-33.5 94t33.5 94t81.5 29q55 0 85 -33.5t30 -89.5t-30 -89.5t-85 -33.5zM1524 1464q-46 0 -76 26.5t-30 86.5 q0 59 30 86t76 27q43 0 74.5 -27.5t31.5 -85.5q0 -60 -31.5 -86.5t-74.5 -26.5z"/>
<glyph glyph-name="uni06A5.init" horiz-adv-x="1198" unicode="ڥ" d="M-10 0q-10 0 -10 10v142q0 8 10 8h311q-52 59 -79 143t-27 166q0 240 150.5 382t410.5 142h268v-993h-1034zM850 160v674h-88q-182 0 -283.5 -95t-101.5 -268q0 -311 280 -311h193zM817 -438q-53 0 -84 32t-31 91q0 58 31 90t84 32q54 0 84.5 -33t30.5 -89t-30 -89.5 t-85 -33.5zM463 -438q-48 0 -81.5 29t-33.5 94q0 64 33.5 93t81.5 29q54 0 84.5 -33t30.5 -89t-30 -89.5t-85 -33.5zM639 -688q-46 0 -76 26.5t-30 86.5q0 58 30 85t76 27q43 0 74.5 -27t31.5 -85q0 -60 -31.5 -86.5t-74.5 -26.5z"/>
<glyph glyph-name="uni06A5.medi" horiz-adv-x="1231" unicode="ڥ" d="M-10 0q-10 0 -10 10v142q0 8 10 8h311q-52 59 -79 143t-27 166q0 244 151.5 384t409.5 140h268v-833h217q6 0 9 -5l1 -5v-142q0 -8 -10 -8h-1251zM850 160v674h-88q-183 0 -284 -96.5t-101 -268.5q0 -309 280 -309h193zM817 -438q-53 0 -84 32t-31 91q0 58 31 90t84 32 q54 0 84.5 -33t30.5 -89t-30 -89.5t-85 -33.5zM463 -438q-48 0 -81.5 29t-33.5 94q0 64 33.5 93t81.5 29q54 0 84.5 -33t30.5 -89t-30 -89.5t-85 -33.5zM639 -688q-46 0 -76 26.5t-30 86.5q0 58 30 85t76 27q43 0 74.5 -27t31.5 -85q0 -60 -31.5 -86.5t-74.5 -26.5z"/>
<glyph glyph-name="uni06A5.fina" horiz-adv-x="2114" unicode="ڥ" d="M516 0q-177 0 -280 106.5t-103 290.5q0 68 14.5 157t36.5 151h164q-31 -148 -31 -293q0 -112 53 -182t140 -70h666q-48 52 -77.5 137t-29.5 172q0 240 150.5 382t410.5 142h268v-833h226q10 0 10 -8v-142q0 -10 -10 -10h-1608zM1724 160v674h-88q-182 0 -283.5 -95 t-101.5 -268q0 -311 281 -311h192zM1675 -438q-53 0 -84 32t-31 91q0 58 31 90t84 32q54 0 84.5 -33t30.5 -89t-30 -89.5t-85 -33.5zM1321 -438q-48 0 -81.5 29t-33.5 94q0 64 33.5 93t81.5 29q54 0 84.5 -33t30.5 -89t-30 -89.5t-85 -33.5zM1497 -688q-46 0 -76 26.5 t-30 86.5q0 58 30 85t76 27q43 0 74.5 -27t31.5 -85q0 -60 -31.5 -86.5t-74.5 -26.5z"/>
<glyph arabic-form="initial" glyph-name="uni06A6.init" horiz-adv-x="1198" unicode="ڦ" d="M-10 0q-10 0 -10 10v142q0 8 10 8h311q-52 59 -79 143t-27 166q0 240 150.5 382t410.5 142h268v-993h-1034zM850 160v674h-88q-182 0 -283.5 -95t-101.5 -268q0 -311 280 -311h193zM807 1561q-44 0 -73.5 25.5t-29.5 84.5t29.5 85t73.5 26q47 0 75.5 -29.5t28.5 -81.5 t-28 -81t-76 -29zM489 1561q-49 0 -76.5 28t-27.5 82q0 58 30.5 84.5t73.5 26.5q42 0 72.5 -26t30.5 -85q0 -53 -27.5 -81.5t-75.5 -28.5zM807 1219q-44 0 -73.5 25.5t-29.5 84.5t29.5 85t73.5 26q47 0 75.5 -29.5t28.5 -81.5t-28 -81t-76 -29zM489 1219q-49 0 -76.5 28 t-27.5 82q0 58 30.5 84.5t73.5 26.5q42 0 72.5 -26t30.5 -85q0 -53 -27.5 -81.5t-75.5 -28.5z"/>
<glyph arabic-form="medial" glyph-name="uni06A6.medi" horiz-adv-x="1231" unicode="ڦ" d="M-10 0q-10 0 -10 10v142q0 8 10 8h311q-52 59 -79 143t-27 166q0 244 151.5 384t409.5 140h268v-833h217q6 0 9 -5l1 -5v-142q0 -8 -10 -8h-1251zM850 160v674h-88q-183 0 -284 -96.5t-101 -268.5q0 -309 280 -309h193zM807 1561q-44 0 -73.5 25.5t-29.5 84.5t29.5 85 t73.5 26q47 0 75.5 -29.5t28.5 -81.5t-28 -81t-76 -29zM489 1561q-49 0 -76.5 28t-27.5 82q0 58 30.5 84.5t73.5 26.5q42 0 72.5 -26t30.5 -85q0 -53 -27.5 -81.5t-75.5 -28.5zM807 1219q-44 0 -73.5 25.5t-29.5 84.5t29.5 85t73.5 26q47 0 75.5 -29.5t28.5 -81.5t-28 -81 t-76 -29zM489 1219q-49 0 -76.5 28t-27.5 82q0 58 30.5 84.5t73.5 26.5q42 0 72.5 -26t30.5 -85q0 -53 -27.5 -81.5t-75.5 -28.5z"/>
<glyph arabic-form="final" glyph-name="uni06A6.fina" horiz-adv-x="2114" unicode="ڦ" d="M516 0q-177 0 -280 106.5t-103 290.5q0 68 14.5 157t36.5 151h164q-31 -148 -31 -293q0 -112 53 -182t140 -70h666q-48 52 -77.5 137t-29.5 172q0 240 150.5 382t410.5 142h268v-833h226q10 0 10 -8v-142q0 -10 -10 -10h-1608zM1724 160v674h-88q-182 0 -283.5 -95 t-101.5 -268q0 -311 281 -311h192zM1645 1561q-44 0 -73.5 25.5t-29.5 84.5t29.5 85t73.5 26q47 0 75.5 -29.5t28.5 -81.5t-28 -81t-76 -29zM1327 1561q-49 0 -76.5 28t-27.5 82q0 58 30.5 84.5t73.5 26.5q42 0 72.5 -26t30.5 -85q0 -53 -27.5 -81.5t-75.5 -28.5zM1645 1219 q-44 0 -73.5 25.5t-29.5 84.5t29.5 85t73.5 26q47 0 75.5 -29.5t28.5 -81.5t-28 -81t-76 -29zM1327 1219q-49 0 -76.5 28t-27.5 82q0 58 30.5 84.5t73.5 26.5q42 0 72.5 -26t30.5 -85q0 -53 -27.5 -81.5t-75.5 -28.5z"/>
<glyph glyph-name="uni06A7.fina" horiz-adv-x="1835" unicode="ڧ" d="M1845 160q10 0 10 -8v-142q0 -10 -10 -10h-225v-12q0 -480 -518 -480h-484q-225 0 -355 133t-130 361q0 261 84 483h170q-70 -196 -70 -471q0 -166 88.5 -256t249.5 -90h414q200 0 288.5 77.5t88.5 240.5v14h-189q-227 0 -346.5 120t-119.5 347q0 243 153 384.5 t408 141.5h268v-833h225zM1446 160v674h-88q-182 0 -283.5 -96t-101.5 -269q0 -160 69.5 -234.5t210.5 -74.5h193zM1253 1188q-53 0 -84 32t-31 91t30.5 91t84.5 32q55 0 85 -33.5t30 -89.5t-30 -89.5t-85 -33.5z"/>
<glyph glyph-name="uni06A8.fina" horiz-adv-x="1835" unicode="ڨ" d="M1845 160q10 0 10 -8v-142q0 -10 -10 -10h-225v-12q0 -480 -518 -480h-484q-225 0 -355 133t-130 361q0 261 84 483h170q-70 -196 -70 -471q0 -166 88.5 -256t249.5 -90h414q200 0 288.5 77.5t88.5 240.5v14h-189q-227 0 -346.5 120t-119.5 347q0 243 153 384.5 t408 141.5h268v-833h225zM1446 160v674h-88q-182 0 -283.5 -96t-101.5 -269q0 -160 69.5 -234.5t210.5 -74.5h193zM1448 1188q-53 0 -84 32t-31 91t30.5 91t84.5 32q55 0 85 -33.5t30 -89.5t-30 -89.5t-85 -33.5zM1094 1188q-48 0 -81.5 29t-33.5 94t33.5 94t81.5 29 q55 0 85 -33.5t30 -89.5t-30 -89.5t-85 -33.5zM1270 1464q-46 0 -76 26.5t-30 86.5q0 59 30 86t76 27q43 0 74.5 -27.5t31.5 -85.5q0 -60 -31.5 -86.5t-74.5 -26.5z"/>
<glyph arabic-form="isolated" glyph-name="uni06A9" horiz-adv-x="1655" unicode="ک" d="M516 0q-186 0 -284.5 95t-98.5 272q0 52 11 129t30 147h164q-31 -170 -31 -256q0 -106 54.5 -166.5t148.5 -60.5h817v377q0 153 -92 225t-285 72h-348v167q66 138 182 271.5t259.5 238t279.5 156.5l66 -156q-186 -72 -367 -223t-250 -295h178q268 0 409.5 -110 t141.5 -316v-567h-985z"/>
<glyph glyph-name="uni06AA.init" horiz-adv-x="2077" unicode="ڪ" d="M-20 160h1769v57q0 153 -92 225t-285 72h-1102v168q99 206 304 395t417 271l66 -156q-189 -76 -367 -224t-250 -294h932q269 0 410 -111t141 -315v-248h-1943v160z"/>
<glyph glyph-name="uni06AA.medi" horiz-adv-x="2163" unicode="ڪ" d="M-20 160h1769v57q0 153 -92 225t-285 72h-1102v168q99 206 304 395t417 271l66 -156q-189 -76 -367 -224t-250 -294h932q269 0 410 -111t141 -315v-88h250q10 0 10 -8v-142q0 -10 -10 -10h-2193v160z"/>
<glyph glyph-name="uni06AA.fina" horiz-adv-x="2392" unicode="ڪ" d="M776 0q-189 0 -406 39.5t-329 89.5l20 92q142 -34 249 -47.5t327 -13.5h1356v57q0 154 -93.5 225.5t-283.5 71.5h-1102v168q100 210 305.5 397t415.5 269l65 -156q-191 -77 -368 -225.5t-248 -292.5h932q269 0 410 -111t141 -315v-88h235q11 0 11 -8v-142q0 -10 -11 -10 h-1626z"/>
<glyph glyph-name="uni06AB.init" horiz-adv-x="1180" unicode="ګ" d="M707 1153q49 0 80.5 29.5t31.5 83.5t-31.5 83t-80.5 29q-50 0 -81.5 -29t-31.5 -83t28.5 -83.5t84.5 -29.5zM707 1051q-92 0 -152.5 47t-71.5 135q-130 -123 -186 -240h178q268 0 409.5 -110t141.5 -316v-567h-1036q-10 0 -10 10v142q0 8 10 8h862v377q0 153 -92 225 t-285 72h-348v167q66 138 182 271.5t259.5 238t279.5 156.5l65 -156q-70 -30 -106 -49q59 -23 94 -73t35 -121q0 -97 -61.5 -157t-167.5 -60z"/>
<glyph glyph-name="uni06AB.medi" horiz-adv-x="1282" unicode="ګ" d="M707 1153q49 0 80.5 29.5t31.5 83.5t-31.5 83t-80.5 29q-50 0 -81.5 -29t-31.5 -83t28.5 -83.5t84.5 -29.5zM707 1051q-92 0 -152.5 47t-71.5 135q-130 -123 -186 -240h178q268 0 409.5 -110t141.5 -316v-407h266q11 0 11 -8v-142q0 -10 -11 -10h-1302q-10 0 -10 10v142 q0 8 10 8h862v377q0 153 -92 225t-285 72h-348v167q66 138 182 271.5t259.5 238t279.5 156.5l65 -156q-70 -30 -106 -49q59 -23 94 -73t35 -121q0 -97 -61.5 -157t-167.5 -60z"/>
<glyph glyph-name="uni06AB.fina" horiz-adv-x="1757" unicode="ګ" d="M1182 1153q49 0 80.5 29.5t31.5 83.5t-31.5 83t-80.5 29q-50 0 -81.5 -29t-31.5 -83t28.5 -83.5t84.5 -29.5zM1182 1051q-92 0 -152.5 47t-71.5 135q-131 -127 -186 -240h178q268 0 409.5 -110t141.5 -316v-407h266q11 0 11 -8v-142q0 -10 -11 -10h-1251 q-186 0 -284.5 95t-98.5 272q0 52 11 129t30 147h164q-31 -170 -31 -256q0 -106 54.5 -166.5t148.5 -60.5h817v377q0 153 -92 225t-285 72h-348v167q66 138 182 271.5t259.5 238t279.5 156.5l66 -156q-75 -32 -107 -49q59 -23 94 -73t35 -121q0 -97 -61.5 -157t-167.5 -60z "/>
<glyph glyph-name="uni06AC.init" horiz-adv-x="1180" unicode="ڬ" d="M-10 0q-10 0 -10 10v142q0 8 10 8h862v377q0 153 -92 225t-285 72h-348v167q66 138 182 271.5t259.5 238t279.5 156.5l65 -156q-188 -74 -368 -224.5t-248 -293.5h178q268 0 409.5 -110t141.5 -316v-567h-1036zM311 1557q-53 0 -84 32t-31 91t30.5 91t84.5 32 q55 0 85 -33.5t30 -89.5t-30 -89.5t-85 -33.5z"/>
<glyph glyph-name="uni06AC.medi" horiz-adv-x="1282" unicode="ڬ" d="M-10 0q-10 0 -10 10v142q0 8 10 8h862v377q0 153 -92 225t-285 72h-348v167q66 138 182 271.5t259.5 238t279.5 156.5l65 -156q-188 -74 -368 -224.5t-248 -293.5h178q268 0 409.5 -110t141.5 -316v-407h266q11 0 11 -8v-142q0 -10 -11 -10h-1302zM311 1557q-53 0 -84 32 t-31 91t30.5 91t84.5 32q55 0 85 -33.5t30 -89.5t-30 -89.5t-85 -33.5z"/>
<glyph glyph-name="uni06AC.fina" horiz-adv-x="1681" unicode="ڬ" d="M586 731l96 14q-72 47 -72 129q0 87 57 136t152 49q76 0 135 -31l-30 -92q-43 25 -103 25q-45 0 -75.5 -25.5t-30.5 -79.5q0 -35 17.5 -59.5t43.5 -36.5q24 5 100 15.5t105 10.5v-100q-17 0 -90 -7.5t-108 -12.5q-177 -25 -197 -29v94zM516 0q-186 0 -284.5 95t-98.5 272 q0 136 51 276h154q-31 -146 -31 -262q0 -103 54.5 -162t148.5 -59h735v1396h174v-1396h273q10 0 10 -8v-142q0 -10 -10 -10h-1176zM782 1311q-53 0 -84 32t-31 91t30.5 91t84.5 32q55 0 85 -33.5t30 -89.5t-30 -89.5t-85 -33.5z"/>
<glyph arabic-form="initial" glyph-name="uni06AD.init" horiz-adv-x="1180" unicode="ڭ" d="M-10 0q-10 0 -10 10v142q0 8 10 8h862v377q0 153 -92 225t-285 72h-348v167q66 138 182 271.5t259.5 238t279.5 156.5l65 -156q-188 -74 -368 -224.5t-248 -293.5h178q268 0 409.5 -110t141.5 -316v-567h-1036zM440 1593q-32 0 -61 30.5t-29 66.5q0 28 24.5 52.5 t57.5 24.5t61.5 -30t28.5 -64q0 -28 -26.5 -54t-55.5 -26zM252 1434q-32 0 -61 30.5t-29 65.5q0 29 24.5 53.5t57.5 24.5t61.5 -30t28.5 -65q0 -29 -27 -54t-55 -25zM223 1661q-28 0 -55 29t-27 57t24 52t54 24t56 -26.5t26 -59.5q0 -28 -25 -52t-53 -24z"/>
<glyph arabic-form="medial" glyph-name="uni06AD.medi" horiz-adv-x="1282" unicode="ڭ" d="M-10 0q-10 0 -10 10v142q0 8 10 8h862v377q0 153 -92 225t-285 72h-348v167q66 138 182 271.5t259.5 238t279.5 156.5l65 -156q-188 -74 -368 -224.5t-248 -293.5h178q268 0 409.5 -110t141.5 -316v-407h266q11 0 11 -8v-142q0 -10 -11 -10h-1302zM440 1593 q-32 0 -61 30.5t-29 66.5q0 28 24.5 52.5t57.5 24.5t61.5 -30t28.5 -64q0 -28 -26.5 -54t-55.5 -26zM252 1434q-32 0 -61 30.5t-29 65.5q0 29 24.5 53.5t57.5 24.5t61.5 -30t28.5 -65q0 -29 -27 -54t-55 -25zM223 1661q-28 0 -55 29t-27 57t24 52t54 24t56 -26.5t26 -59.5 q0 -28 -25 -52t-53 -24z"/>
<glyph arabic-form="final" glyph-name="uni06AD.fina" horiz-adv-x="1681" unicode="ڭ" d="M586 731l96 14q-72 47 -72 129q0 87 57 136t152 49q76 0 135 -31l-30 -92q-43 25 -103 25q-45 0 -75.5 -25.5t-30.5 -79.5q0 -35 17.5 -59.5t43.5 -36.5q24 5 100 15.5t105 10.5v-100q-17 0 -90 -7.5t-108 -12.5q-177 -25 -197 -29v94zM516 0q-186 0 -284.5 95t-98.5 272 q0 136 51 276h154q-31 -146 -31 -262q0 -103 54.5 -162t148.5 -59h735v1396h174v-1396h273q10 0 10 -8v-142q0 -10 -10 -10h-1176zM956 1188q-53 0 -84 32t-31 91t30.5 91t84.5 32q55 0 85 -33.5t30 -89.5t-30 -89.5t-85 -33.5zM602 1188q-48 0 -81.5 29t-33.5 94t33.5 94 t81.5 29q55 0 85 -33.5t30 -89.5t-30 -89.5t-85 -33.5zM778 1464q-46 0 -76 26.5t-30 86.5q0 59 30 86t76 27q43 0 74.5 -27.5t31.5 -85.5q0 -60 -31.5 -86.5t-74.5 -26.5z"/>
<glyph glyph-name="uni06AE.init" horiz-adv-x="1180" unicode="ڮ" d="M-10 0q-10 0 -10 10v142q0 8 10 8h862v377q0 153 -92 225t-285 72h-348v167q66 138 182 271.5t259.5 238t279.5 156.5l65 -156q-188 -74 -368 -224.5t-248 -293.5h178q268 0 409.5 -110t141.5 -316v-567h-1036zM688 -438q-53 0 -84 32t-31 91q0 58 31 90t84 32 q54 0 84.5 -33t30.5 -89t-30 -89.5t-85 -33.5zM334 -438q-48 0 -81.5 29t-33.5 94q0 64 33.5 93t81.5 29q54 0 84.5 -33t30.5 -89t-30 -89.5t-85 -33.5zM510 -688q-46 0 -76 26.5t-30 86.5q0 58 30 85t76 27q43 0 74.5 -27t31.5 -85q0 -60 -31.5 -86.5t-74.5 -26.5z"/>
<glyph glyph-name="uni06AE.medi" horiz-adv-x="1282" unicode="ڮ" d="M-10 0q-10 0 -10 10v142q0 8 10 8h862v377q0 153 -92 225t-285 72h-348v167q66 138 182 271.5t259.5 238t279.5 156.5l65 -156q-188 -74 -368 -224.5t-248 -293.5h178q268 0 409.5 -110t141.5 -316v-407h266q11 0 11 -8v-142q0 -10 -11 -10h-1302zM680 -438q-53 0 -84 32 t-31 91q0 58 31 90t84 32q54 0 84.5 -33t30.5 -89t-30 -89.5t-85 -33.5zM326 -438q-48 0 -81.5 29t-33.5 94q0 64 33.5 93t81.5 29q54 0 84.5 -33t30.5 -89t-30 -89.5t-85 -33.5zM502 -688q-46 0 -76 26.5t-30 86.5q0 58 30 85t76 27q43 0 74.5 -27t31.5 -85 q0 -60 -31.5 -86.5t-74.5 -26.5z"/>
<glyph glyph-name="uni06AE.fina" horiz-adv-x="1681" unicode="ڮ" d="M586 731l96 14q-72 47 -72 129q0 87 57 136t152 49q76 0 135 -31l-30 -92q-43 25 -103 25q-45 0 -75.5 -25.5t-30.5 -79.5q0 -35 17.5 -59.5t43.5 -36.5q24 5 100 15.5t105 10.5v-100q-17 0 -90 -7.5t-108 -12.5q-177 -25 -197 -29v94zM516 0q-186 0 -284.5 95t-98.5 272 q0 136 51 276h154q-31 -146 -31 -262q0 -103 54.5 -162t148.5 -59h735v1396h174v-1396h273q10 0 10 -8v-142q0 -10 -10 -10h-1176zM979 -438q-53 0 -84 32t-31 91q0 58 31 90t84 32q54 0 84.5 -33t30.5 -89t-30 -89.5t-85 -33.5zM625 -438q-48 0 -81.5 29t-33.5 94 q0 64 33.5 93t81.5 29q54 0 84.5 -33t30.5 -89t-30 -89.5t-85 -33.5zM801 -688q-46 0 -76 26.5t-30 86.5q0 58 30 85t76 27q43 0 74.5 -27t31.5 -85q0 -60 -31.5 -86.5t-74.5 -26.5z"/>
<glyph arabic-form="isolated" glyph-name="uni06AF" horiz-adv-x="1655" unicode="گ" d="M516 0q-186 0 -284.5 95t-98.5 272q0 52 11 129t30 147h164q-31 -170 -31 -256q0 -106 54.5 -166.5t148.5 -60.5h817v377q0 153 -92 225t-285 72h-348v167q66 138 182 271.5t259.5 238t279.5 156.5l66 -156q-186 -72 -367 -223t-250 -295h178q268 0 409.5 -110 t141.5 -316v-567h-985zM547 1284q67 150 265 331.5t397 264.5l59 -137q-126 -48 -266 -148t-246.5 -215t-153.5 -217z"/>
<glyph glyph-name="uni06B0.init" horiz-adv-x="1180" unicode="ڰ" d="M707 1153q49 0 80.5 29.5t31.5 83.5t-31.5 83t-80.5 29q-50 0 -81.5 -29t-31.5 -83t28.5 -83.5t84.5 -29.5zM707 1051q-92 0 -152.5 47t-71.5 135q-130 -123 -186 -240h178q268 0 409.5 -110t141.5 -316v-567h-1036q-10 0 -10 10v142q0 8 10 8h862v377q0 153 -92 225 t-285 72h-348v167q66 138 182 271.5t259.5 238t279.5 156.5l65 -156q-70 -30 -106 -49q59 -23 94 -73t35 -121q0 -97 -61.5 -157t-167.5 -60zM76 1284q67 150 265 331.5t397 264.5l59 -137q-126 -48 -266 -148t-246.5 -215t-153.5 -217z"/>
<glyph glyph-name="uni06B0.medi" horiz-adv-x="1282" unicode="ڰ" d="M707 1153q49 0 80.5 29.5t31.5 83.5t-31.5 83t-80.5 29q-50 0 -81.5 -29t-31.5 -83t28.5 -83.5t84.5 -29.5zM707 1051q-92 0 -152.5 47t-71.5 135q-130 -123 -186 -240h178q268 0 409.5 -110t141.5 -316v-407h266q11 0 11 -8v-142q0 -10 -11 -10h-1302q-10 0 -10 10v142 q0 8 10 8h862v377q0 153 -92 225t-285 72h-348v167q66 138 182 271.5t259.5 238t279.5 156.5l65 -156q-70 -30 -106 -49q59 -23 94 -73t35 -121q0 -97 -61.5 -157t-167.5 -60zM76 1284q67 150 265 331.5t397 264.5l59 -137q-126 -48 -266 -148t-246.5 -215t-153.5 -217z"/>
<glyph glyph-name="uni06B0.fina" horiz-adv-x="1757" unicode="ڰ" d="M1182 1153q49 0 80.5 29.5t31.5 83.5t-31.5 83t-80.5 29q-50 0 -81.5 -29t-31.5 -83t28.5 -83.5t84.5 -29.5zM1182 1051q-92 0 -152.5 47t-71.5 135q-131 -127 -186 -240h178q268 0 409.5 -110t141.5 -316v-407h266q11 0 11 -8v-142q0 -10 -11 -10h-1251 q-186 0 -284.5 95t-98.5 272q0 52 11 129t30 147h164q-31 -170 -31 -256q0 -106 54.5 -166.5t148.5 -60.5h817v377q0 153 -92 225t-285 72h-348v167q66 138 182 271.5t259.5 238t279.5 156.5l66 -156q-75 -32 -107 -49q59 -23 94 -73t35 -121q0 -97 -61.5 -157t-167.5 -60z M547 1284q67 150 265 331.5t397 264.5l59 -137q-126 -48 -266 -148t-246.5 -215t-153.5 -217z"/>
<glyph arabic-form="initial" glyph-name="uni06B1.init" horiz-adv-x="1180" unicode="ڱ" d="M-10 0q-10 0 -10 10v142q0 8 10 8h862v377q0 153 -92 225t-285 72h-348v167q66 138 182 271.5t259.5 238t279.5 156.5l65 -156q-188 -74 -368 -224.5t-248 -293.5h178q268 0 409.5 -110t141.5 -316v-567h-1036zM76 1284q67 150 265 331.5t397 264.5l59 -137 q-126 -48 -266 -148t-246.5 -215t-153.5 -217zM389 1823q-34 0 -57 20.5t-23 65.5t23 65.5t57 20.5q32 0 56 -20.5t24 -65.5t-24 -65.5t-56 -20.5zM182 1653q-34 0 -57 20.5t-23 65.5t23 65.5t57 20.5q32 0 56 -20.5t24 -65.5t-24 -65.5t-56 -20.5z"/>
<glyph arabic-form="medial" glyph-name="uni06B1.medi" horiz-adv-x="1282" unicode="ڱ" d="M-10 0q-10 0 -10 10v142q0 8 10 8h862v377q0 153 -92 225t-285 72h-348v167q66 138 182 271.5t259.5 238t279.5 156.5l65 -156q-188 -74 -368 -224.5t-248 -293.5h178q268 0 409.5 -110t141.5 -316v-407h266q11 0 11 -8v-142q0 -10 -11 -10h-1302zM76 1284 q67 150 265 331.5t397 264.5l59 -137q-126 -48 -266 -148t-246.5 -215t-153.5 -217zM389 1823q-34 0 -57 20.5t-23 65.5t23 65.5t57 20.5q32 0 56 -20.5t24 -65.5t-24 -65.5t-56 -20.5zM182 1653q-34 0 -57 20.5t-23 65.5t23 65.5t57 20.5q32 0 56 -20.5t24 -65.5t-24 -65.5 t-56 -20.5z"/>
<glyph arabic-form="final" glyph-name="uni06B1.fina" horiz-adv-x="1757" unicode="ڱ" d="M516 0q-186 0 -284.5 95t-98.5 272q0 52 11 129t30 147h164q-31 -170 -31 -256q0 -106 54.5 -166.5t148.5 -60.5h817v377q0 153 -92 225t-285 72h-348v167q66 138 182 271.5t259.5 238t279.5 156.5l66 -156q-186 -72 -367 -223t-250 -295h178q268 0 409.5 -110 t141.5 -316v-407h266q11 0 11 -8v-142q0 -10 -11 -10h-1251zM547 1284q67 150 265 331.5t397 264.5l59 -137q-126 -48 -266 -148t-246.5 -215t-153.5 -217zM860 1823q-34 0 -57 20.5t-23 65.5t23 65.5t57 20.5q32 0 56 -20.5t24 -65.5t-24 -65.5t-56 -20.5zM653 1653 q-34 0 -57 20.5t-23 65.5t23 65.5t57 20.5q32 0 56 -20.5t24 -65.5t-24 -65.5t-56 -20.5z"/>
<glyph glyph-name="uni06B2.init" horiz-adv-x="1180" unicode="ڲ" d="M-10 0q-10 0 -10 10v142q0 8 10 8h862v377q0 153 -92 225t-285 72h-348v167q66 138 182 271.5t259.5 238t279.5 156.5l65 -156q-188 -74 -368 -224.5t-248 -293.5h178q268 0 409.5 -110t141.5 -316v-567h-1036zM76 1284q67 150 265 331.5t397 264.5l59 -137 q-126 -48 -266 -148t-246.5 -215t-153.5 -217zM692 -410q-53 0 -84 32t-31 91t30.5 91t84.5 32q55 0 85 -33.5t30 -89.5t-30 -89.5t-85 -33.5zM338 -410q-48 0 -81.5 29t-33.5 94t33.5 94t81.5 29q52 0 83 -31.5t31 -91.5q0 -59 -30.5 -91t-83.5 -32z"/>
<glyph glyph-name="uni06B2.medi" horiz-adv-x="1282" unicode="ڲ" d="M-10 0q-10 0 -10 10v142q0 8 10 8h862v377q0 153 -92 225t-285 72h-348v167q66 138 182 271.5t259.5 238t279.5 156.5l65 -156q-188 -74 -368 -224.5t-248 -293.5h178q268 0 409.5 -110t141.5 -316v-407h266q11 0 11 -8v-142q0 -10 -11 -10h-1302zM76 1284 q67 150 265 331.5t397 264.5l59 -137q-126 -48 -266 -148t-246.5 -215t-153.5 -217zM690 -410q-53 0 -84 32t-31 91t30.5 91t84.5 32q55 0 85 -33.5t30 -89.5t-30 -89.5t-85 -33.5zM336 -410q-48 0 -81.5 29t-33.5 94t33.5 94t81.5 29q52 0 83 -31.5t31 -91.5 q0 -59 -30.5 -91t-83.5 -32z"/>
<glyph glyph-name="uni06B2.fina" horiz-adv-x="1757" unicode="ڲ" d="M516 0q-186 0 -284.5 95t-98.5 272q0 52 11 129t30 147h164q-31 -170 -31 -256q0 -106 54.5 -166.5t148.5 -60.5h817v377q0 153 -92 225t-285 72h-348v167q66 138 182 271.5t259.5 238t279.5 156.5l66 -156q-186 -72 -367 -223t-250 -295h178q268 0 409.5 -110 t141.5 -316v-407h266q11 0 11 -8v-142q0 -10 -11 -10h-1251zM547 1284q67 150 265 331.5t397 264.5l59 -137q-126 -48 -266 -148t-246.5 -215t-153.5 -217zM1030 -410q-53 0 -84 32t-31 91t30.5 91t84.5 32q55 0 85 -33.5t30 -89.5t-30 -89.5t-85 -33.5zM676 -410 q-48 0 -81.5 29t-33.5 94t33.5 94t81.5 29q52 0 83 -31.5t31 -91.5q0 -59 -30.5 -91t-83.5 -32z"/>
<glyph arabic-form="initial" glyph-name="uni06B3.init" horiz-adv-x="1180" unicode="ڳ" d="M-10 0q-10 0 -10 10v142q0 8 10 8h862v377q0 153 -92 225t-285 72h-348v167q66 138 182 271.5t259.5 238t279.5 156.5l65 -156q-188 -74 -368 -224.5t-248 -293.5h178q268 0 409.5 -110t141.5 -316v-567h-1036zM76 1284q67 150 265 331.5t397 264.5l59 -137 q-126 -48 -266 -148t-246.5 -215t-153.5 -217zM510 -410q-53 0 -84 32t-31 91t30.5 91t84.5 32q55 0 85 -33.5t30 -89.5t-30 -89.5t-85 -33.5zM510 -780q-53 0 -84 32t-31 91q0 58 31 90t84 32q54 0 84.5 -33t30.5 -89t-30 -89.5t-85 -33.5z"/>
<glyph arabic-form="medial" glyph-name="uni06B3.medi" horiz-adv-x="1282" unicode="ڳ" d="M-10 0q-10 0 -10 10v142q0 8 10 8h862v377q0 153 -92 225t-285 72h-348v167q66 138 182 271.5t259.5 238t279.5 156.5l65 -156q-188 -74 -368 -224.5t-248 -293.5h178q268 0 409.5 -110t141.5 -316v-407h266q11 0 11 -8v-142q0 -10 -11 -10h-1302zM76 1284 q67 150 265 331.5t397 264.5l59 -137q-126 -48 -266 -148t-246.5 -215t-153.5 -217zM520 -410q-53 0 -84 32t-31 91t30.5 91t84.5 32q55 0 85 -33.5t30 -89.5t-30 -89.5t-85 -33.5zM520 -780q-53 0 -84 32t-31 91q0 58 31 90t84 32q54 0 84.5 -33t30.5 -89t-30 -89.5 t-85 -33.5z"/>
<glyph arabic-form="final" glyph-name="uni06B3.fina" horiz-adv-x="1757" unicode="ڳ" d="M516 0q-186 0 -284.5 95t-98.5 272q0 52 11 129t30 147h164q-31 -170 -31 -256q0 -106 54.5 -166.5t148.5 -60.5h817v377q0 153 -92 225t-285 72h-348v167q66 138 182 271.5t259.5 238t279.5 156.5l66 -156q-186 -72 -367 -223t-250 -295h178q268 0 409.5 -110 t141.5 -316v-407h266q11 0 11 -8v-142q0 -10 -11 -10h-1251zM547 1284q67 150 265 331.5t397 264.5l59 -137q-126 -48 -266 -148t-246.5 -215t-153.5 -217zM858 -410q-53 0 -84 32t-31 91t30.5 91t84.5 32q55 0 85 -33.5t30 -89.5t-30 -89.5t-85 -33.5zM858 -780 q-53 0 -84 32t-31 91q0 58 31 90t84 32q54 0 84.5 -33t30.5 -89t-30 -89.5t-85 -33.5z"/>
<glyph glyph-name="uni06B4.init" horiz-adv-x="1180" unicode="ڴ" d="M-10 0q-10 0 -10 10v142q0 8 10 8h862v377q0 153 -92 225t-285 72h-348v167q66 138 182 271.5t259.5 238t279.5 156.5l65 -156q-188 -74 -368 -224.5t-248 -293.5h178q268 0 409.5 -110t141.5 -316v-567h-1036zM76 1284q67 150 265 331.5t397 264.5l59 -137 q-126 -48 -266 -148t-246.5 -215t-153.5 -217zM148 1917q-34 0 -57 20.5t-23 65.5t23 65.5t57 20.5q32 0 56 -20.5t24 -65.5t-24 -65.5t-56 -20.5zM390 1823q-34 0 -57 20.5t-23 65.5t23 65.5t57 20.5q32 0 56 -20.5t24 -65.5t-24 -65.5t-56 -20.5zM183 1653q-34 0 -57 20.5 t-23 65.5t23 65.5t57 20.5q32 0 56 -20.5t24 -65.5t-24 -65.5t-56 -20.5z"/>
<glyph glyph-name="uni06B4.medi" horiz-adv-x="1282" unicode="ڴ" d="M-10 0q-10 0 -10 10v142q0 8 10 8h862v377q0 153 -92 225t-285 72h-348v167q66 138 182 271.5t259.5 238t279.5 156.5l65 -156q-188 -74 -368 -224.5t-248 -293.5h178q268 0 409.5 -110t141.5 -316v-407h266q11 0 11 -8v-142q0 -10 -11 -10h-1302zM76 1284 q67 150 265 331.5t397 264.5l59 -137q-126 -48 -266 -148t-246.5 -215t-153.5 -217zM148 1917q-34 0 -57 20.5t-23 65.5t23 65.5t57 20.5q32 0 56 -20.5t24 -65.5t-24 -65.5t-56 -20.5zM390 1823q-34 0 -57 20.5t-23 65.5t23 65.5t57 20.5q32 0 56 -20.5t24 -65.5t-24 -65.5 t-56 -20.5zM183 1653q-34 0 -57 20.5t-23 65.5t23 65.5t57 20.5q32 0 56 -20.5t24 -65.5t-24 -65.5t-56 -20.5z"/>
<glyph glyph-name="uni06B4.fina" horiz-adv-x="1757" unicode="ڴ" d="M516 0q-186 0 -284.5 95t-98.5 272q0 52 11 129t30 147h164q-31 -170 -31 -256q0 -106 54.5 -166.5t148.5 -60.5h817v377q0 153 -92 225t-285 72h-348v167q66 138 182 271.5t259.5 238t279.5 156.5l66 -156q-186 -72 -367 -223t-250 -295h178q268 0 409.5 -110 t141.5 -316v-407h266q11 0 11 -8v-142q0 -10 -11 -10h-1251zM547 1284q67 150 265 331.5t397 264.5l59 -137q-126 -48 -266 -148t-246.5 -215t-153.5 -217zM619 1917q-34 0 -57 20.5t-23 65.5t23 65.5t57 20.5q32 0 56 -20.5t24 -65.5t-24 -65.5t-56 -20.5zM861 1823 q-34 0 -57 20.5t-23 65.5t23 65.5t57 20.5q32 0 56 -20.5t24 -65.5t-24 -65.5t-56 -20.5zM654 1653q-34 0 -57 20.5t-23 65.5t23 65.5t57 20.5q32 0 56 -20.5t24 -65.5t-24 -65.5t-56 -20.5z"/>
<glyph glyph-name="uni06B5.init" horiz-adv-x="647" unicode="ڵ" d="M-10 0q-10 0 -10 10v142q0 8 10 8h270v1396h182v-1556h-452zM615 2079l-225 -408h-127l-228 408h160l129 -264l133 264h158z"/>
<glyph glyph-name="uni06B5.medi" horiz-adv-x="698" unicode="ڵ" d="M-10 0q-10 0 -10 10v142q0 8 10 8h270v1396h182v-1396h267q10 0 10 -8v-142q0 -10 -10 -10h-719zM625 2079l-225 -408h-127l-228 408h160l129 -264l133 264h158z"/>
<glyph glyph-name="uni06B5.fina" horiz-adv-x="1417" unicode="ڵ" d="M1202 0q-3 -243 -126 -367.5t-384 -124.5h-147q-190 0 -301 140t-111 385q0 126 22 255.5t62 227.5h170q-70 -177 -70 -483q0 -175 70 -270t197 -95h100q178 0 261 81t83 245v1562h174v-1396h225q11 0 11 -8v-142q0 -10 -11 -10h-225zM1399 2079l-225 -408h-127l-228 408 h160l129 -264l133 264h158z"/>
<glyph glyph-name="uni06B6.init" horiz-adv-x="647" unicode="ڶ" d="M-10 0q-10 0 -10 10v142q0 8 10 8h270v1396h182v-1556h-452zM344 1682q-53 0 -84 32t-31 91t30.5 91t84.5 32q55 0 85 -33.5t30 -89.5t-30 -89.5t-85 -33.5z"/>
<glyph glyph-name="uni06B6.medi" horiz-adv-x="698" unicode="ڶ" d="M-10 0q-10 0 -10 10v142q0 8 10 8h270v1396h182v-1396h267q10 0 10 -8v-142q0 -10 -10 -10h-719zM350 1682q-53 0 -84 32t-31 91t30.5 91t84.5 32q55 0 85 -33.5t30 -89.5t-30 -89.5t-85 -33.5z"/>
<glyph glyph-name="uni06B6.fina" horiz-adv-x="1417" unicode="ڶ" d="M1202 0q-3 -243 -126 -367.5t-384 -124.5h-147q-190 0 -301 140t-111 385q0 126 22 255.5t62 227.5h170q-70 -177 -70 -483q0 -175 70 -270t197 -95h100q178 0 261 81t83 245v1562h174v-1396h225q11 0 11 -8v-142q0 -10 -11 -10h-225zM1108 1682q-53 0 -84 32t-31 91 t30.5 91t84.5 32q55 0 85 -33.5t30 -89.5t-30 -89.5t-85 -33.5z"/>
<glyph glyph-name="uni06B7.init" horiz-adv-x="647" unicode="ڷ" d="M-10 0q-10 0 -10 10v142q0 8 10 8h270v1396h182v-1556h-452zM453 1723q-80 0 -80 86q0 45 23 65.5t57 20.5q32 0 56 -20.5t24 -65.5q0 -47 -24 -66.5t-56 -19.5zM205 1723q-80 0 -80 86q0 45 23 65.5t57 20.5q32 0 56 -20.5t24 -65.5q0 -47 -24 -66.5t-56 -19.5z M328 1915q-74 0 -74 80q0 40 21 59t53 19q31 0 53.5 -19t22.5 -59q0 -43 -22.5 -61.5t-53.5 -18.5z"/>
<glyph glyph-name="uni06B7.medi" horiz-adv-x="698" unicode="ڷ" d="M-10 0q-10 0 -10 10v142q0 8 10 8h270v1396h182v-1396h267q10 0 10 -8v-142q0 -10 -10 -10h-719zM475 1723q-80 0 -80 86q0 45 23 65.5t57 20.5q32 0 56 -20.5t24 -65.5q0 -47 -24 -66.5t-56 -19.5zM227 1723q-80 0 -80 86q0 45 23 65.5t57 20.5q32 0 56 -20.5t24 -65.5 q0 -47 -24 -66.5t-56 -19.5zM350 1915q-74 0 -74 80q0 40 21 59t53 19q31 0 53.5 -19t22.5 -59q0 -43 -22.5 -61.5t-53.5 -18.5z"/>
<glyph glyph-name="uni06B7.fina" horiz-adv-x="1417" unicode="ڷ" d="M1202 0q-3 -243 -126 -367.5t-384 -124.5h-147q-190 0 -301 140t-111 385q0 126 22 255.5t62 227.5h170q-70 -177 -70 -483q0 -175 70 -270t197 -95h100q178 0 261 81t83 245v1562h174v-1396h225q11 0 11 -8v-142q0 -10 -11 -10h-225zM1221 1723q-80 0 -80 86 q0 45 23 65.5t57 20.5q32 0 56 -20.5t24 -65.5q0 -47 -24 -66.5t-56 -19.5zM973 1723q-80 0 -80 86q0 45 23 65.5t57 20.5q32 0 56 -20.5t24 -65.5q0 -47 -24 -66.5t-56 -19.5zM1096 1915q-74 0 -74 80q0 40 21 59t53 19q31 0 53.5 -19t22.5 -59q0 -43 -22.5 -61.5 t-53.5 -18.5z"/>
<glyph glyph-name="uni06B8.init" horiz-adv-x="647" unicode="ڸ" d="M-10 0q-10 0 -10 10v142q0 8 10 8h270v1396h182v-1556h-452zM497 -438q-53 0 -84 32t-31 91q0 58 31 90t84 32q54 0 84.5 -33t30.5 -89t-30 -89.5t-85 -33.5zM143 -438q-48 0 -81.5 29t-33.5 94q0 64 33.5 93t81.5 29q54 0 84.5 -33t30.5 -89t-30 -89.5t-85 -33.5z M319 -688q-46 0 -76 26.5t-30 86.5q0 58 30 85t76 27q43 0 74.5 -27t31.5 -85q0 -60 -31.5 -86.5t-74.5 -26.5z"/>
<glyph glyph-name="uni06B8.medi" horiz-adv-x="698" unicode="ڸ" d="M-10 0q-10 0 -10 10v142q0 8 10 8h270v1396h182v-1396h267q10 0 10 -8v-142q0 -10 -10 -10h-719zM524 -438q-53 0 -84 32t-31 91q0 58 31 90t84 32q54 0 84.5 -33t30.5 -89t-30 -89.5t-85 -33.5zM170 -438q-48 0 -81.5 29t-33.5 94q0 64 33.5 93t81.5 29q54 0 84.5 -33 t30.5 -89t-30 -89.5t-85 -33.5zM346 -688q-46 0 -76 26.5t-30 86.5q0 58 30 85t76 27q43 0 74.5 -27t31.5 -85q0 -60 -31.5 -86.5t-74.5 -26.5z"/>
<glyph glyph-name="uni06B8.fina" horiz-adv-x="1417" unicode="ڸ" d="M1202 0q-3 -243 -126 -367.5t-384 -124.5h-147q-190 0 -301 140t-111 385q0 126 22 255.5t62 227.5h170q-70 -177 -70 -483q0 -175 70 -270t197 -95h100q178 0 261 81t83 245v1562h174v-1396h225q11 0 11 -8v-142q0 -10 -11 -10h-225zM803 -826q-80 0 -80 86 q0 45 23 65.5t57 20.5q32 0 56 -20.5t24 -65.5q0 -47 -24 -66.5t-56 -19.5zM555 -826q-80 0 -80 86q0 45 23 65.5t57 20.5q32 0 56 -20.5t24 -65.5q0 -47 -24 -66.5t-56 -19.5zM678 -1002q-74 0 -74 79q0 41 21 59.5t53 18.5q31 0 53.5 -18.5t22.5 -59.5q0 -43 -22.5 -61 t-53.5 -18z"/>
<glyph glyph-name="uni06B9.init" horiz-adv-x="616" unicode="ڹ" d="M-10 0q-10 0 -10 10v142q0 8 10 8h270v833h182v-993h-452zM344 1188q-53 0 -84 32t-31 91t30.5 91t84.5 32q55 0 85 -33.5t30 -89.5t-30 -89.5t-85 -33.5zM324 -410q-53 0 -84 32t-31 91t30.5 91t84.5 32q55 0 85 -33.5t30 -89.5t-30 -89.5t-85 -33.5z"/>
</font>
</defs>
</svg>
